PLAY THE GAME
ロードオブメジャー

BASIC

Level: 1
BPM: 160
Notes: 134

1
口口口口 |----|
口口口口 |----|
口口口口 |----|
口口口口 |----|
2
口口口口 |----|
口口口口 |----|
口口口口 |----|
口口口口 |----|
3
口口口口 |----|
口口口口 |----|
口口口口 |----|
口口口口 |----|
4
口口口口 |----|
口口口口 |----|
口口口口 |----|
口口口口 |----|
5
口口口口 |----|
口口口口 |----|
口口口口 |----|
口口口口 |----|
6
口①口口 |①---|
口口口口 |----|
口口口口 |----|
口口口口 |----|
7
口口口口 |①---|
口口①口 |----|
口口口口 |----|
口口口口 |----|
8
口口口口 |①---|
口口口口 |----|
口①口口 |----|
口口口口 |----|
9
口口口口 |①---|
口口口口 |----|
口口口口 |----|
口口①口 |----|
10
口口口口 |①---|
口口①口 |----|
口口口口 |----|
口口口口 |----|
11
口口口口 |①---|
口①口口 |----|
口口口口 |----|
口口口口 |----|
12
口口口口 |①---|
口口口口 |----|
口①口口 |----|
口口口口 |----|
13
口口口口 |①---|
口口口口 |----|
口口①口 |----|
口口口口 |----|
14
口口口口 |①---|
口口①口 |----|
口口口口 |----|
口口口口 |----|
15
口口口口 |①---|
口①口口 |----|
口口口口 |----|
口口口口 |----|
16
口口口口 |①---|
口口口口 |----|
口①口口 |----|
口口口口 |----|
17
口口口口 |①---|
口口口口 |----|
口口①口 |----|
口口口口 |----|
18
口①口口 |①---|
口口口口 |----|
口口口口 |----|
口口口口 |----|
19
口口口口 |①---|
口口①口 |----|
口口口口 |----|
口口口口 |----|
20
口口口口 |①---|
口口口口 |----|
口①口口 |----|
口口口口 |----|
21
口口口口 |①---|
口口口口 |----|
口口口口 |----|
口口①口 |----|
22
口口①口 |①---|
口口口口 |----|
口口口口 |----|
口口口口 |----|
23
口口口口 |①---|
口①口口 |----|
口口口口 |----|
口口口口 |----|
24
口口口口 |①---|
口口口口 |----|
口口①口 |----|
口口口口 |----|
25
口口口口 |①---|
口口口口 |----|
口口口口 |----|
口①口口 |----|
26
口①①口 |①---|
口口口口 |----|
口口口口 |----|
口口口口 |----|
27
口口口口 |①---|
口①①口 |----|
口口口口 |----|
口口口口 |----|
28
口口口口 |①---|
口口口口 |----|
口①①口 |----|
口口口口 |----|
29
口口口口 |①---|
口口口口 |----|
口口口口 |----|
口①①口 |----|
30
口口口口 |①---|
口口口口 |----|
①口口① |----|
口口口口 |----|
31
口口口口 |①---|
①口口① |----|
口口口口 |----|
口口口口 |----|
32
口口口口 |①---|
口①①口 |----|
口①①口 |----|
口口口口 |----|
33
口口口口 |----|
口口口口 |----|
口口口口 |----|
口口口口 |----|
34
口口口口 |①---|
口①①口 |----|
口①①口 |----|
口口口口 |----|
35
口口口口 |----|
口口口口 |----|
口口口口 |----|
口口口口 |----|
36
口口口口 |①---|
口①①口 |----|
口①①口 |----|
口口口口 |----|
37
口口口口 |----|
口口口口 |----|
口口口口 |----|
口口口口 |----|
38
口口口口 |①---|
口①①口 |----|
口①①口 |----|
口口口口 |----|
39
口口口口 |①---|
①口口① |----|
①口口① |----|
口口口口 |----|
40
口口口口 |①---|
①口口口 |----|
口②口口 |②---|
口口口口 |----|
41
口口口口 |①---|
口口①口 |----|
口口口② |②---|
口口口口 |----|
42
口口口口 |①---|
口口口① |----|
口口②口 |②---|
口口口口 |----|
43
口口口口 |①---|
口①口口 |----|
②口口口 |②---|
口口口口 |----|
44
口①口口 |①---|
口口②口 |----|
口口口口 |②---|
口口口口 |----|
45
口口口口 |①---|
口口口口 |----|
口①口口 |②---|
口口②口 |----|
46
口口口口 |①---|
口口口口 |----|
口口②口 |②---|
口①口口 |----|
47
口口②口 |①---|
口①口口 |----|
口口口口 |②---|
口口口口 |----|
48
口口口口 |①---|
口①①口 |----|
口口口口 |----|
口口口口 |----|
49
口口口口 |①---|
口口口口 |----|
口①①口 |----|
口口口口 |----|
50
口口口口 |①---|
①口口口 |----|
①口口口 |----|
口口口口 |----|
51
口口口口 |①---|
口口口① |----|
口口口① |----|
口口口口 |----|
52
口口口口 |①---|
①口口口 |--②-|
口口口③ |----|
口②口口 |③---|
53
口口①口 |--①-|
口②②口 |----|
口③③口 |②---|
口口口口 |③---|
54
①②③口 |①---|
口口口口 |②---|
口口口口 |③---|
口口口④ |--④-|
55
口口口口 |--①-|
口口口口 |--②-|
口口口口 |----|
口②①口 |----|
56
口口口口 |①---|
①口口口 |--②-|
口口口③ |----|
口②口口 |③---|
57
口口①口 |--①-|
口②②口 |----|
口③③口 |②---|
口口口口 |③---|
58
①②③口 |①---|
口口口口 |②---|
口口口口 |③---|
口口口④ |--④-|
59
口口口口 |--①-|
口口口口 |--②-|
口口口口 |----|
口②①口 |----|
60
口口口口 |①---|
①②③口 |②---|
口口口④ |③---|
口口口口 |--④-|
61
口口口口 |--①-|
口口口口 |--②-|
口②①口 |----|
口口口口 |----|
62
口①①口 |①---|
口②②口 |②---|
④③③④ |③---|
口口口口 |--④-|
63
②③③② |--①-|
①④④① |--②-|
口口口口 |③---|
口口口口 |④---|
64
口口口口 |①---|
口口口口 |----|
口①①口 |----|
口口口口 |----|
65
口①①口 |----|
口②②口 |----|
口口口口 |①---|
口口口口 |②---|
66
口口口口 |①---|
口口口口 |----|
口①①口 |----|
口口口口 |----|


不确定度: 0

最終更新:2012年11月27日 00:43