PLAY THE GAME
ロードオブメジャー

ADVANCED

Level: 5
BPM: 160
Notes: 355

1
口口口口 |----|
口口口口 |----|
口口口口 |----|
口口口口 |----|
2
⑤⑥口口 |①---②-|
④口口口 |--③---|
③口口口 |④---⑤-|
②①①口 |--⑥---|
3
口口⑤⑥ |①---②-|
口①④口 |--③---|
口②③口 |④---⑤-|
口口口口 |--⑥---|
4
口口⑥⑤ |①---②-|
口口口④ |--③---|
口口口③ |④---⑤-|
口①①② |--⑥---|
5
⑥⑤口口 |①---②-|
口④①口 |--③---|
口③②口 |④---⑤-|
口口口口 |--⑥---|
6
⑤⑥口口 |①---②-|
④口口口 |--③---|
③口口口 |④---⑤-|
②①①口 |--⑥---|
7
口口⑤⑥ |①---②-|
口①④口 |--③---|
口②③口 |④---⑤-|
口口口口 |--⑥---|
8
⑤⑥⑥⑤ |①---②-|
④口口④ |--③---|
③口口③ |④---⑤-|
②①①② |--⑥---|
9
口口口口 |①---|
②①①② |----|
②①①② |②---|
口口口口 |----|
10
口口口口 |①---|
口口口口 |----|
口①①口 |----|
口①①口 |----|
11
口①①口 |①---|
口①①口 |----|
口口口口 |----|
口口口口 |----|
12
口口口口 |①-②-|
口口口口 |③-④-|
口口口口 |----|
①②③④ |----|
13
④③②① |①-②-|
口口口口 |③-④-|
口口口口 |----|
口口口口 |----|
14
口口口口 |①---|
口口口口 |----|
口①①口 |----|
口①①口 |----|
15
口①①口 |①---|
口①①口 |----|
口口口口 |----|
口口口口 |----|
16
口口⑦口 |①-②-|
口口⑥① |③---|
口口⑤② |④-⑤-|
口口④③ |⑥-⑦-|
17
①①口口 |--①-|
④④口口 |----|
③③口口 |②-③-|
②②口口 |④---|
18
口①①口 |①---|
口口口口 |----|
口口口口 |----|
口口口口 |----|
19
口口口口 |----|
口口口口 |----|
①②③④ |①-②-|
口口口口 |③-④-|
20
口口口口 |----|
口口口口 |----|
口口口口 |----|
口口口口 |----|
21
口口口口 |----|
口口口口 |----|
口③②① |--①-|
口口口口 |②-③-|
22
口口口口 |①-②-|
口口口口 |③-④-|
①口口口 |⑤---|
②③④⑤ |----|
23
①②③④ |----|
口口口口 |----|
口口口口 |①-②-|
口口口口 |③-④-|
24
口口口口 |①-②-|
④③②① |③-④-|
⑤⑥⑦⑧ |⑤-⑥-|
口口口口 |⑦-⑧-|
25
口口口口 |----|
口口口口 |----|
口口口口 |----|
口口口口 |----|
26
口口口口 |①---|
口口口口 |----|
口①①口 |----|
口口口口 |----|
27
①口口口 |----|
口②口口 |----|
③口口口 |①-②-|
口④口口 |③-④-|
28
口口口④ |①-②-|
口口③口 |③-④-|
口口口② |----|
口口①口 |----|
29
口④口口 |----|
③口口口 |----|
口②口口 |①-②-|
①口口口 |③-④-|
30
口口①口 |①-②-|
口⑤⑤② |③-④-|
口口③口 |⑤---|
口口口④ |----|
31
④口口④ |----|
口③③口 |----|
②口口② |①-②-|
口①①口 |③-④-|
32
口①①口 |①---|
④⑤⑤④ |②-③-|
口③③口 |④---|
②口口② |--⑤-|
33
口口口口 |--①-|
口④④口 |--②-|
③②②③ |③---|
口①①口 |④---|
34
口①①口 |①---|
④⑤⑤④ |②-③-|
口③③口 |④---|
②口口② |--⑤-|
35
口口口口 |--①-|
口④④口 |--②-|
③②②③ |③---|
口①①口 |④---|
36
口①①口 |①---|
④⑤⑤④ |②-③-|
口③③口 |④---|
②口口② |--⑤-|
37
口口口口 |--①-|
口④④口 |--②-|
③②②③ |③---|
口①①口 |④---|
38
口①①口 |①---|
口口口口 |----|
口口口口 |----|
口口口口 |----|
39
口口口口 |①---|
①①①① |----|
口口口口 |----|
口口口口 |----|
40
口口口口 |①---|
②口口② |----|
②①①② |----|
口①①口 |②---|
41
②①①② |①---|
口①①口 |----|
口口口口 |----|
口口口口 |②---|
42
口口口口 |①-②-|
①口口⑥ |③---|
②口口⑤ |④-⑤-|
③口口④ |⑥---|
43
口口口① |①---|
口口口口 |----|
口口口口 |----|
口口口口 |----|
44
①口口⑧ |①-②-|
②口口⑦ |③-④-|
③口口⑥ |⑤-⑥-|
④口口⑤ |⑦-⑧-|
45
口口口口 |----|
口口口口 |----|
①①①① |----|
口口口口 |①---|
46
口口口口 |①---|
①①①① |----|
口口口口 |----|
口口口口 |----|
47
①①①① |①---|
口口口口 |----|
口口口口 |----|
口口口口 |----|
48
口口口口 |①---|
②口口② |----|
②①①② |----|
口①①口 |②---|
49
②①①② |①---|
口①①口 |----|
口口口口 |----|
口口口口 |②---|
50
口口口口 |①-②-|
①口口⑥ |③---|
②口口⑤ |④-⑤-|
③口口④ |⑥---|
51
口口口① |①---|
口口口口 |----|
口口口口 |----|
口口口口 |----|
52
口①①口 |①---|
②②③③ |--②-|
口口口口 |----|
口口口口 |③---|
53
口口口口 |--①-|
口口口口 |----|
口①①口 |②---|
②②③③ |③---|
54
②口口① |①---|
口④③口 |②---|
口口口口 |③-④-|
口口口⑤ |--⑤-|
55
口口口口 |--①-|
口口口口 |--②-|
口③②口 |③---|
①口口口 |----|
56
口①①口 |①---|
②②③③ |--②-|
口口口口 |----|
口口口口 |③---|
57
口口口口 |--①-|
口口口口 |----|
口①①口 |②---|
②②③③ |③---|
58
②口口① |①---|
口④③口 |②---|
口口口口 |③-④-|
口口口⑤ |--⑤-|
59
口口口口 |--①-|
口口口口 |--②-|
口③②口 |③---|
①口口口 |----|
60
②口口① |①---|
口④③口 |②---|
口口口口 |③-④-|
口口口⑤ |--⑤-|
61
口口口口 |--①-|
口口口口 |--②-|
口③②口 |③---|
①④④口 |④---|
62
②口口口 |①---|
口④③口 |②---|
①口口① |③-④-|
口口口⑤ |--⑤-|
63
口口口口 |--①-|
④口口④ |--②-|
④③③④ |③---|
①②②口 |④---|
64
口①①口 |①---|
口①①口 |----|
口口口口 |----|
口口口口 |----|
65
口口口口 |----|
②口口② |----|
②①①② |①--②|
口①①口 |----|
66
口①①口 |①---|
口①①口 |----|
口口口口 |----|
口口口口 |----|


不确定度: 0

最終更新:2012年11月27日 00:43