PLAY THE GAME
ロードオブメジャー

EXTREME

Level: 7
BPM: 160
Notes: 555

1
口口口口 |----|
口口口口 |----|
口口口口 |----|
口口口口 |----|
2
口口①口 |①---②-|
口①口口 |--③---|
③口①③
②①口②

⑤口⑥⑤
④口口④
口口口口 |④---⑤-|
口口口口 |--⑥---|
3
⑥口口⑥ |①---②-|
⑤①口⑤ |--③---|
④口②④ |④---⑤-|
口③口口 |--⑥---|
4
口①口口 |①---②-|
口口①口 |--③---|
③①口③
②口①②

⑤⑥口⑤
④口口④
口口口口 |④---⑤-|
口口口口 |--⑥---|
5
⑥口口⑥ |①---②-|
⑤口①⑤ |--③---|
④②口④ |④---⑤-|
口口③口 |--⑥---|
6
口口①口 |①---②-|
口①口口 |--③---|
③口①③
②①口②

⑤口⑥⑤
④口口④
口口口口 |④---⑤-|
口口口口 |--⑥---|
7
⑥口口⑥ |①---②-|
⑤①口⑤ |--③---|
④口②④ |④---⑤-|
口③口口 |--⑥---|
8
口①口口 |①---②-|
口口①口 |--③---|
③①口③
②口①②

⑤口口⑥
④⑤⑥④
口口口口 |④---⑤-|
口口口口 |--⑥---|
9
口口口口 |①---|
口口口口 |----|
②①①② |②---|
②①①② |----|
10
口口①口 |①---|
口①口口 |----|
口口①口 |----|
口①口口 |----|
11
口①口口 |①---|
口口①口 |----|
口①口口 |----|
口口①口 |----|
12
口口口① |①-②-|
口口①② |③-④-|
口口②③ |----|
口口③④ |----|
13
①口口口 |①-②-|
②①口口 |③-④-|
③②口口 |----|
④③口口 |----|
14
口①口口 |①---|
口口①口 |----|
口①口口 |----|
口口①口 |----|
15
口口①口 |①---|
口①口口 |----|
口口①口 |----|
口①口口 |----|
16
口⑦⑦口 |①-②-|
①⑥⑥① |③---|
②⑤⑤② |④-⑤-|
③④④③ |⑥-⑦-|
17
③④④③ |--①-|
②口口② |----|
①口口① |②-③-|
②口口② |④---|
18
口口口口 |①---|
口①①口 |----|
口口口口 |----|
口①①口 |----|
19
口口①① |----|
②②口口 |----|
口口③③ |①-②-|
④④口口 |③-④-|
20
口口口口 |----|
口口口口 |----|
口口口口 |----|
口口口口 |----|
21
口③②① |----|
口口口口 |----|
口③②① |--①-|
口口口口 |②-③-|
22
①口口口 |①-②-|
②③④⑤ |③-④-|
①口口口 |⑤---|
②③④⑤ |----|
23
①②③④ |----|
口口口口 |----|
①②③④ |①-②-|
口口口口 |③-④-|
24
⑤⑥⑦⑧ |①-②-|
④③②① |③-④-|
⑤⑥⑦⑧ |⑤-⑥-|
④③②① |⑦-⑧-|
25
口口口口 |----|
口口口口 |----|
口口口口 |----|
口口口口 |----|
26
口①①口 |①---|
口口口口 |----|
口①①口 |----|
口口口口 |----|
27
①口③口 |----|
口②口④ |----|
①口③口 |①-②-|
口②口④ |③-④-|
28
口③口① |①-②-|
④口②口 |③-④-|
口③口① |----|
④口②口 |----|
29
口口口口 |----|
口口口口 |----|
③④④③ |①-②-|
②①①② |③-④-|
30
②口口② |①---|
②①①② |----|
口口口口 |②---|
口口口口 |----|
31
④口口④ |----|
口③③口 |----|
②口口② |①-②-|
口①①口 |③-④-|
32
口口口口 |①---|
③口口③ |②-③-|
口①①口
②口口②

口口口口
口口口口
④⑤⑤④ |④---|
口口口口 |--⑤-|
33
③②②③ |--①-|
口①①口 |--②-|
③口口③ |③---|
口④④口 |④---|
34
口口口口 |①---|
③口口③ |②-③-|
口①①口
②口口②

口口口口
口口口口
④⑤⑤④ |④---|
口口口口 |--⑤-|
35
③②②③ |--①-|
口①①口 |--②-|
③口口③ |③---|
口④④口 |④---|
36
④②②④ |①---|
口③③口 |②-③-|
④①①④ |④---|
⑤口口⑤ |--⑤-|
37
③口口③ |--①-|
②④④② |--②-|
③①①③ |③---|
口④④口 |④---|
38
口①①口 |①---|
口口口口 |----|
口①①口 |----|
口口口口 |----|
39
口口口口 |①---|
①①①① |----|
口口口口 |----|
口①①口 |----|
40
②口①① |①-②-|
③口口⑧ |③-④-|
④口口⑦ |⑤-⑥-|
⑤⑤口⑥ |⑦-⑧-|
41
②口①① |①-②-|
③口口⑧ |③-④-|
④口口⑦ |⑤-⑥-|
⑤⑤口⑥ |⑦-⑧-|
42
②口①① |①-②-|
③口口⑧ |③-④-|
④口口⑦ |⑤-⑥-|
⑤⑤口⑥ |⑦-⑧-|
43
②口①① |①-②-|
③口口⑧ |③-④-|
④口口⑦ |⑤-⑥-|
⑤⑤口⑥ |⑦-⑧-|
44
②口①① |①-②-|
③口口⑧ |③-④-|
④口口⑦ |⑤-⑥-|
⑤⑤口⑥ |⑦-⑧-|
45
②口①① |①-②-|
③口口⑧ |③-④-|
④口口⑦ |⑤-⑥-|
⑤⑤口⑥ |⑦-⑧-|
46
②口①① |①-②-|
③口口⑧ |③-④-|
④口口⑦ |⑤-⑥-|
⑤⑤口⑥ |⑦-⑧-|
47
③②①① |①-②-|
④⑤⑥口 |③-④-|
口口⑦口 |⑤-⑥-|
口口⑧口 |⑦-⑧-|
48
②口①① |①-②-|
③口口⑧ |③-④-|
④口口⑦ |⑤-⑥-|
⑤⑤口⑥ |⑦-⑧-|
49
②口①① |①-②-|
③口口⑧ |③-④-|
④口口⑦ |⑤-⑥-|
⑤⑤口⑥ |⑦-⑧-|
50
②口①① |①-②-|
③口口⑧ |③-④-|
④口口⑦ |⑤-⑥-|
⑤⑤口⑥ |⑦-⑧-|
51
②口①① |①-②-|
③口口⑧ |③-④-|
④口口⑦ |⑤-⑥-|
⑤⑤口⑥ |⑦-⑧-|
52
口口①① |①---|
③口②口 |-②③-|
⑤口口④ |---④|
口口口口 |⑤---|
53
口④③口 |-①②-|
口③④口 |----|
口④③口 |③---|
②③④① |④---|
54
②口口① |①---|
口口口口 |②---|
口口口口
①口口②

口口口⑤
④口口③
③口口④ |③-④-|
⑤口口口 |--⑤-|
55
①口④口 |--①-|
③口口② |--②-|
②口口③ |③---|
口口口① |---④|
56
①口口口 |①---|
口②口③ |-②③-|
⑤口口④ |---④|
口口口口 |⑤---|
57
口④③口 |-①②-|
口③④口 |----|
口④③口 |③---|
①③④② |④---|
58
②口口① |①---|
口口口口 |②---|
口口口口
①口口②

口口口⑤
④口口③
③口口④ |③-④-|
⑤口口口 |--⑤-|
59
①口口口 |--①-|
③口口② |--②-|
②口口③ |③---|
口口口① |----|
60
②口口① |①---|
口口口口 |②---|
口口口口
①口口②

口口口⑤
④口口③
③口口④ |③-④-|
⑤口口口 |--⑤-|
61
①口口口 |--①-|
③④③② |--②-|
②③④③ |③---|
口口口① |④---|
62
②口①① |①---|
口口口口 |②---|
口口口口
①①口②

口口口⑤
④口口③
③口口④ |③-④-|
⑤口口口 |--⑤-|
63
①口口口 |--①-|
③④③② |--②-|
②③④③ |③---|
口口口① |④---|
64
口口①① |①---|
口口口口 |----|
口口口口 |----|
①①口口 |----|
65
②②①① |----|
口口口口 |----|
口口口口 |①---|
①①②② |②---|
66
口口口口 |①---|
①①①① |----|
①①①① |----|
口口口口 |----|


不确定度: 0

最終更新:2012年11月27日 00:42