I my me mine

BASIC

Level: 3
BPM: 167
Notes: 270

1
口口口口 |----|
口口口口 |----|
口口口口 |----|
口口口口 |----|
2
口①②口 |①---|
口口口口 |----|
口口口口 |----|
口口口口 |②---|
3
口口口口 |①---|
口①②口 |----|
口口口口 |----|
口口口口 |②---|
4
口口口口 |①---|
口口口口 |----|
口①②口 |----|
口口口口 |②---|
5
口口口口 |①---|
口口口口 |----|
口口口口 |----|
口①②口 |②---|
6
口①②口 |①---|
口口口口 |----|
口口口口 |----|
口口口口 |②---|
7
口口口口 |①---|
口①②口 |----|
口口口口 |----|
口口口口 |②---|
8
口口口口 |①---|
口口口口 |----|
口①②口 |----|
口口口口 |②---|
9
口口口口 |①---|
口口口口 |----|
口口口口 |----|
口①②口 |②---|
10
口口口口 |①---|
①③口口 |②---|
②④口口 |③---|
口口口口 |④---|
11
口口口口 |①---|
口口①③ |②---|
口口②④ |③---|
口口口口 |④---|
12
口口口口 |①---|
口口口口 |②---|
口口口口 |③---|
①②③口 |----|
13
口口口口 |①---|
口口口口 |②---|
口③②① |③---|
口口口口 |----|
14
①口口口 |①---|
②口口口 |②---|
③口口口 |③---|
④口口口 |④---|
15
口口口① |①---|
口口口② |②---|
口口口③ |③---|
口口口④ |④---|
16
口口口口 |①---|
口③口口 |②---|
②口口口 |③---|
①口口口 |----|
17
口口口口 |①---|
口口③口 |②---|
口口口② |③---|
口口口① |----|
18
口①②口 |①---|
口③④口 |②---|
口口口口 |③---|
口口口口 |④---|
19
口口口口 |①---|
口口口口 |②---|
口①②口 |③---|
口③④口 |④---|
20
①②口口 |①---|
口口④③ |②---|
口口口口 |③---|
口口口口 |④---|
21
口口口口 |①---|
口口口口 |②---|
①②口口 |③---|
口口④③ |④---|
22
口口口口 |①---|
①③口口 |②---|
②④口口 |③---|
口口口口 |④---|
23
口口口口 |①---|
口口①③ |②---|
口口②④ |③---|
口口口口 |④---|
24
口口口口 |①---|
口口口口 |②---|
口口口口 |③---|
口③②① |----|
25
口口口口 |①---|
口口口口 |②---|
①②③口 |③---|
口口口口 |----|
26
④口口口 |①---|
③口口口 |②---|
②口口口 |③---|
①口口口 |④---|
27
口口口④ |①---|
口口口③ |②---|
口口口② |③---|
口口口① |④---|
28
口①①口 |①---|
口②②口 |②---|
口③③口 |③---|
口④④口 |④---|
29
口口口口 |①---|
③③③③ |②---|
②口口② |③---|
①口口① |----|
30
①②口口 |①---|
口口口口 |----|
口口口口 |②---|
口口口口 |----|
31
口口①② |①---|
口口口口 |----|
口口口口 |②---|
口口口口 |----|
32
口口口口 |①---|
口口②① |----|
口口口口 |②---|
口口口口 |----|
33
口口口口 |①---|
②①口口 |----|
口口口口 |②---|
口口口口 |----|
34
口口口口 |①---|
口口口口 |----|
①②口口 |②---|
口口口口 |----|
35
口口口口 |①---|
口口口口 |----|
口口①② |②---|
口口口口 |----|
36
口口口口 |①---|
口口口口 |----|
口口口口 |②---|
口口②① |----|
37
口口口口 |①---|
口口口口 |----|
口口口口 |②---|
②①口口 |----|
38
口口口口 |①---|
①③口口 |②---|
②④口口 |③---|
口口口口 |④---|
39
口口口口 |①---|
口口①③ |②---|
口口②④ |③---|
口口口口 |④---|
40
口口口口 |①---|
口口口口 |②---|
口口口口 |③---|
①②③口 |----|
41
口口口口 |①---|
口口口口 |②---|
口③②① |③---|
口口口口 |----|
42
①口口口 |①---|
②口口口 |②---|
③口口口 |③---|
④口口口 |④---|
43
口口口① |①---|
口口口② |②---|
口口口③ |③---|
口口口④ |④---|
44
口口口口 |①---|
口③口口 |②---|
②口口口 |③---|
①口口口 |----|
45
口口口口 |①---|
口口③口 |②---|
口口口② |③---|
口口口① |----|
46
口①②口 |①---|
口③④口 |②---|
口口口口 |③---|
口口口口 |④---|
47
口口口口 |①---|
口口口口 |②---|
口①②口 |③---|
口③④口 |④---|
48
①②口口 |①---|
口口④③ |②---|
口口口口 |③---|
口口口口 |④---|
49
口口口口 |①---|
口口口口 |②---|
①②口口 |③---|
口口④③ |④---|
50
口口口口 |①---|
①③口口 |②---|
②④口口 |③---|
口口口口 |④---|
51
口口口口 |①---|
口口①③ |②---|
口口②④ |③---|
口口口口 |④---|
52
口口口口 |①---|
口口口口 |②---|
口口口口 |③---|
口③②① |----|
53
口口口口 |①---|
口口口口 |②---|
①②③口 |③---|
口口口口 |----|
54
④口口口 |①---|
③口口口 |②---|
②口口口 |③---|
①口口口 |④---|
55
口口口④ |①---|
口口口③ |②---|
口口口② |③---|
口口口① |④---|
56
口①①口 |①---|
口②②口 |②---|
口③③口 |③---|
口④④口 |④---|
57
口口口口 |①---|
③③③③ |②---|
②口口② |③---|
①口口① |----|
58
①②口口 |①---|
口口口口 |----|
口口口口 |②---|
口口口口 |----|
59
口口①② |①---|
口口口口 |----|
口口口口 |②---|
口口口口 |----|
60
口口口口 |①---|
口口②① |----|
口口口口 |②---|
口口口口 |----|
61
口口口口 |①---|
②①口口 |----|
口口口口 |②---|
口口口口 |----|
62
口口口口 |①---|
口口口口 |----|
①②口口 |②---|
口口口口 |----|
63
口口口口 |①---|
口口口口 |----|
口口①② |②---|
口口口口 |----|
64
口口口口 |①---|
口口口口 |----|
口口口口 |②---|
口口②① |----|
65
口口口口 |①---|
口口口口 |----|
口口口口 |②---|
②①口口 |----|
66
口口口口 |----|
口口口口 |①---|
口②②口 |②---|
口①①口 |----|
67
口口口口 |①---|
口口口口 |----|
①口口② |②---|
口口口口 |----|
68
口口口口 |----|
口②②口 |①---|
口①①口 |②---|
口口口口 |----|
69
口口口口 |①---|
①口口② |----|
口口口口 |②---|
口口口口 |----|
70
口②②口 |----|
口①①口 |①---|
口口口口 |②---|
口口口口 |----|
71
①口口② |①---|
口口口口 |----|
口口口口 |②---|
口口口口 |----|
72
口①①口 |----|
口口口口 |①---|
口口口口 |②---|
口②②口 |----|
73
口口口口 |----|
口①①口 |----|
口①①口 |----|
口口口口 |①---|
74
①②③口 |----|
口口口口 |①---|
口口口口 |②---|
口口口口 |③---|
75
口口口口 |①---|
④③②① |②---|
口口口口 |③---|
口口口口 |④---|
76
口口口口 |----|
口口口口 |①---|
①②③口 |②---|
口口口口 |③---|
77
口口口口 |①---|
口口口口 |②---|
口口口口 |③---|
④③②① |④---|
78
口②③口 |①---|
口口口口 |----|
口①①口 |②---|
口口口口 |③---|
79
口口口口 |①---|
口②③口 |----|
口①①口 |②---|
口口口口 |③---|
80
口口口口 |①---|
口口口口 |----|
口①①口 |②---|
②③口口 |③---|
81
口口口口 |①---|
口④④口 |②---|
口③③口 |③---|
口口①② |④---|


不确定度: 0

最終更新:2012年11月27日 00:42