I my me mine

ADVANCED

Level: 6
BPM: 167
Notes: 417

1
口口口口 |----|
口口口口 |----|
口口口口 |----|
口口口口 |----|
2
①口口口 |①---|
②口口口 |②---|
③口口口 |③---|
④④口口 |④---|
3
口口④④ |①---|
口口口③ |②---|
口口口② |③---|
口口口① |④---|
4
①口口口 |①---|
②口口口 |②---|
③口口口 |③---|
④④口口 |④---|
5
口口④④ |①---|
口口口③ |②---|
口口口② |③---|
口口口① |④---|
6
①口口口 |①---|
②口口口 |②---|
③口口口 |③---|
④④口口 |④---|
7
口口④④ |①---|
口口口③ |②---|
口口口② |③---|
口口口① |④---|
8
①口口口 |①---|
②口口口 |②---|
③口口口 |③---|
④④口口 |④---|
9
口口④④ |①---|
口口口③ |②---|
口口口② |③---|
口口口① |④---|
10
①口口口 |①---|
③口口口 |②---|
口口口④ |③---|
口口口② |④---|
11
口口④④ |①---|
口口口② |②---|
①口口口 |③---|
③③口口 |④---|
12
口口口口 |①---|
①②③口 |②---|
口口口口 |③---|
口口口口 |----|
13
口口口口 |①---|
口口口口 |②---|
口③②① |③---|
口口口口 |----|
14
口口口口 |①---|
③①口口 |②---|
口口②④ |③---|
口口口口 |④---|
15
①口口口 |①---|
口⑤⑤口 |②---|
口④④口 |③-④-|
口③③② |⑤---|
16
④⑤口口 |①-②-|
③口口口 |③-④-|
②口口口 |⑤---|
①口口口 |----|
17
口口⑤④ |①-②-|
口口口③ |③-④-|
口口口② |⑤---|
口口口① |----|
18
①②口口 |①-②-|
口⑤④③ |--③-|
⑥口口口 |④-⑤-|
口口口口 |--⑥-|
19
口口口口 |①-②-|
口口口口 |--③-|
口①②口 |④-⑤-|
⑥⑤④③ |⑥---|
20
①②口口 |①-②-|
口⑤④③ |--③-|
⑥口口口 |④-⑤-|
口口口口 |--⑥-|
21
口口口口 |①-②-|
口口口口 |--③-|
口①②口 |④-⑤-|
⑥⑤④③ |⑥---|
22
①口口口 |①---|
③口口口 |②---|
口口口④ |③---|
口口口② |④---|
23
口口④④ |①---|
口口口② |②---|
①口口口 |③---|
③③口口 |④---|
24
口口口口 |①---|
①②③口 |②---|
口口口口 |③---|
口口口口 |----|
25
口口口口 |①---|
口口口口 |②---|
口③②① |③---|
口口口口 |----|
26
口口口口 |①---|
口①②口 |②---|
口④③口 |③---|
口口口口 |④---|
27
①口口② |①---|
口口口口 |②---|
口口口口 |③---|
④口口③ |④---|
28
口④④口 |①---|
口③③口 |②---|
口②②口 |③---|
口①①口 |④---|
29
④口口④ |①-②-|
③⑤⑤③ |③-④-|
②⑤⑤② |⑤---|
①口口① |----|
30
口①②口 |①---|
口口口口 |②---|
⑥⑤④③ |③-④-|
口口口口 |⑤-⑥-|
31
口口口口 |①-②-|
①②③口 |③---|
口口口口 |④---|
⑤口④口 |⑤---|
32
口①②口 |①---|
口口口口 |②---|
⑥⑤④③ |③-④-|
口口口口 |⑤-⑥-|
33
口口口口 |①-②-|
①②③口 |③---|
口口口口 |④---|
口口④口 |----|
34
口①②口 |①---|
口口口口 |②---|
⑥⑤④③ |③-④-|
口口口口 |⑤-⑥-|
35
口口口口 |①-②-|
①②③口 |③---|
口口口口 |④---|
⑤口④口 |⑤---|
36
口①②口 |①---|
口口口口 |②---|
⑥⑤④③ |③-④-|
口口口口 |⑤-⑥-|
37
口口口口 |①-②-|
①②③口 |③---|
口口口口 |④---|
口口④口 |----|
38
①口口口 |①---|
③口口口 |②---|
口口口④ |③---|
口口口② |④---|
39
口口④④ |①---|
口口口② |②---|
①口口口 |③---|
③③口口 |④---|
40
口口口口 |①---|
①②③口 |②---|
口口口口 |③---|
口口口口 |----|
41
口口口口 |①---|
口口口口 |②---|
口③②① |③---|
口口口口 |----|
42
口口口口 |①---|
③①口口 |②---|
口口②④ |③---|
口口口口 |④---|
43
①口口口 |①---|
口⑤⑤口 |②---|
口④④口 |③-④-|
口③③② |⑤---|
44
④⑤口口 |①-②-|
③口口口 |③-④-|
②口口口 |⑤---|
①口口口 |----|
45
口口⑤④ |①-②-|
口口口③ |③-④-|
口口口② |⑤---|
口口口① |----|
46
①②口口 |①-②-|
口⑤④③ |--③-|
⑥口口口 |④-⑤-|
口口口口 |--⑥-|
47
口口口口 |①-②-|
口口口口 |--③-|
口①②口 |④-⑤-|
⑥⑤④③ |⑥---|
48
①②口口 |①-②-|
口⑤④③ |--③-|
⑥口口口 |④-⑤-|
口口口口 |--⑥-|
49
口口口口 |①-②-|
口口口口 |--③-|
口①②口 |④-⑤-|
⑥⑤④③ |⑥---|
50
①口口口 |①---|
③口口口 |②---|
口口口④ |③---|
口口口② |④---|
51
口口④④ |①---|
口口口② |②---|
①口口口 |③---|
③③口口 |④---|
52
口口口口 |①---|
①②③口 |②---|
口口口口 |③---|
口口口口 |----|
53
口口口口 |①---|
口口口口 |②---|
口③②① |③---|
口口口口 |----|
54
口口口口 |①---|
口①②口 |②---|
口④③口 |③---|
口口口口 |④---|
55
①口口② |①---|
口口口口 |②---|
口口口口 |③---|
④口口③ |④---|
56
口④④口 |①---|
口③③口 |②---|
口②②口 |③---|
口①①口 |④---|
57
④口口④ |①-②-|
③⑤⑤③ |③-④-|
②⑤⑤② |⑤---|
①口口① |----|
58
口①②口 |①---|
口口口口 |②---|
⑥⑤④③ |③-④-|
口口口口 |⑤-⑥-|
59
口口口口 |①-②-|
①②③口 |③---|
口口口口 |④---|
⑤口④口 |⑤---|
60
口①②口 |①---|
口口口口 |②---|
⑥⑤④③ |③-④-|
口口口口 |⑤-⑥-|
61
口口口口 |①-②-|
①②③口 |③---|
口口口口 |④---|
口口④口 |----|
62
口①②口 |①---|
口口口口 |②---|
⑥⑤④③ |③-④-|
口口口口 |⑤-⑥-|
63
口口口口 |①-②-|
①②③口 |③---|
口口口口 |④---|
⑤口④口 |⑤---|
64
口①②口 |①---|
口口口口 |②---|
⑥⑤④③ |③-④-|
口口口口 |⑤-⑥-|
65
口口口口 |①-②-|
①②③口 |③---|
口口口口 |④---|
口口④口 |----|
66
口口口口 |----|
①口口② |①---|
口口口口 |②---|
口口口口 |----|
67
口口口口 |①---|
口口口口 |②---|
口③④口 |③---|
口①②口 |④---|
68
口②②口 |----|
口①①口 |①---|
口口口口 |②---|
口口口口 |----|
69
口口口口 |①---|
①口口② |②---|
③口口④ |③---|
口口口口 |④---|
70
口③口口 |----|
口口口口 |①---|
口②②口 |②---|
口①①口 |--③-|
71
口口①口 |①-②-|
口②③口 |③-④-|
口④⑤口 |⑤-⑥-|
口⑥⑦口 |⑦---|
72
口②②口 |----|
口口口口 |①---|
①口口① |②---|
口口口口 |----|
73
口①口① |----|
口①①① |----|
口①口① |----|
口口口口 |①---|
74
①口口口 |----|
②口口口 |①---|
③口口口 |②---|
口口口口 |③---|
75
口⑥口⑤ |①-②-|
口口口④ |③-④-|
口口口③ |⑤---|
口口①② |⑥---|
76
①口口口 |----|
②口口口 |①---|
③口口口 |②---|
口口口口 |③---|
77
口口⑥⑤ |①-②-|
口口⑦④ |③-④-|
口口⑧③ |⑤-⑥-|
口口①② |⑦-⑧-|
78
口口口⑥ |①---|
②口口⑤ |②---|
①口口④ |③-④-|
口口口③ |⑤-⑥-|
79
口口⑥口 |①---|
口②⑤口 |②---|
口①④口 |③-④-|
口口③口 |⑤-⑥-|
80
口口口⑥ |①---|
②口口⑤ |②---|
①口口④ |③-④-|
口口口③ |⑤-⑥-|
81
⑤口①⑤ |①-②-|
口口②口 |③---|
口④③口 |④---|
口口口口 |⑤---|


不确定度: 0

最終更新:2012年11月27日 00:42