I my me mine

EXTREME

Level: 8
BPM: 167
Notes: 611

1
口口口口 |----|
口口口口 |----|
口口口口 |----|
口口口口 |----|
2
④⑤口口 |①-②-|
③⑥⑥口 |③-④-|
②⑥⑥口 |⑤---|
①口口口 |⑥---|
3
口口⑤④ |①-②-|
口⑥口③ |③-④-|
口口⑦② |⑤-⑥⑦|
口⑧口① |⑧---|
4
④⑤口口 |①-②-|
③⑥⑥口 |③-④-|
②⑥⑥口 |⑤---|
①口口口 |⑥---|
5
口口⑤④ |①-②-|
口⑥口③ |③-④-|
口口⑦② |⑤-⑥⑦|
口⑧口① |⑧---|
6
④⑤口口 |①-②-|
③⑥⑥口 |③-④-|
②⑥⑥口 |⑤---|
①口口口 |⑥---|
7
口口⑤④ |①-②-|
口⑥口③ |③-④-|
口口⑦② |⑤-⑥⑦|
口⑧口① |⑧---|
8
④⑤口口 |①-②-|
③⑥⑥口 |③-④-|
②⑥⑥口 |⑤---|
①口口口 |⑥---|
9
口⑤⑥④ |①-②-|
口⑦⑧③ |③-④-|
口⑨口② |⑤⑥⑦⑧|
口口⑩① |⑨-⑩-|
10
⑦口⑧⑧ |①-②-|
⑤口口⑥ |③-④-|
③口④④ |⑤-⑥-|
①口口② |⑦-⑧-|
11
⑦⑦口口 |①-②-|
⑤口口⑥ |③-④-|
③口④④ |⑤-⑥-|
①口口② |⑦---|
12
口口口口 |①-②③|
⑤⑤⑥⑥ |④-⑤-|
③口④④ |⑥---|
①①口② |----|
13
口口口口 |①-②③|
⑤⑤⑥⑥ |④-⑤-|
③口④④ |⑥---|
①①口② |----|
14
④口口口 |①---|
口口口③ |②---|
②口口④ |③---|
③①①② |④---|
15
⑤口②① |①---|
④③口⑤ |②---|
②①③④ |③-④-|
口口口口 |⑤---|
16
口⑤②① |①-②-|
口④③口 |③-④-|
口口口口 |⑤---|
口口口口 |----|
17
口口口口 |①-②-|
口口口口 |③-④-|
①②⑤口 |⑤---|
口③④口 |----|
18
口①③口 |①-②-|
口口②口 |--③-|
口④⑥口 |④-⑤-|
口口⑤口 |--⑥-|
19
口①口口 |①-②-|
口③②口 |--③-|
④口⑥⑤ |④-⑤⑥|
口口⑦口 |⑦---|
20
口①③口 |①-②-|
口口②口 |--③-|
口④⑥口 |④-⑤-|
口口⑤口 |--⑥-|
21
④①口⑤ |①-②-|
⑥③②⑦ |--③-|
口口口口 |④⑤⑥⑦|
口⑧⑨口 |⑧-⑨-|
22
⑦口⑧⑧ |①-②-|
⑤口口⑥ |③-④-|
③口④④ |⑤-⑥-|
①口口② |⑦-⑧-|
23
⑦⑦口口 |①-②-|
⑤口口⑥ |③-④-|
③口④④ |⑤-⑥-|
①口口② |⑦---|
24
口口口口 |①-②③|
⑤⑤⑥⑥ |④-⑤-|
③口④④ |⑥---|
①①口② |----|
25
口口口口 |①-②③|
⑤⑤⑥⑥ |④-⑤-|
③口④④ |⑥---|
①①口② |----|
26
⑥口口⑥ |①-②-|
⑤口口⑤ |③-④-|
口③④口 |⑤---|
口①②口 |⑥---|
27
口⑥⑥口 |①-②-|
口⑤⑤口 |③-④-|
③口口④ |⑤---|
①口口② |⑥---|
28
①口⑥⑥ |①-②-|
⑤⑤口② |③-④-|
③口口口 |⑤---|
口口口④ |⑥---|
29
①②口口 |①-②-|
口口④③ |③-④-|
口口口口 |⑤---|
口⑤⑤口 |----|
30
口口⑥口 |①---|
①⑤口② |②---|
②口④① |③-④-|
口③口口 |⑤-⑥-|
31
①口⑤口 |①-②-|
②口④口 |③---|
口口口口 |④---|
口口③口 |⑤---|
32
口口⑥口 |①---|
①⑤口② |②---|
②口④① |③-④-|
口③口口 |⑤-⑥-|
33
口①口口 |①-②-|
口口②口 |③---|
口③口口 |④---|
口口④口 |----|
34
口口⑥口 |①---|
①⑤口② |②---|
②口④① |③-④-|
口③口口 |⑤-⑥-|
35
①口⑤口 |①-②-|
②口④口 |③---|
口口口口 |④---|
口口③口 |⑤---|
36
口口⑥口 |①---|
①⑤口② |②---|
②口④① |③-④-|
口③口口 |⑤-⑥-|
37
口①口口 |①-②-|
口口②口 |③---|
口③口口 |④---|
口口④口 |----|
38
⑦口⑧⑧ |①-②-|
⑤口口⑥ |③-④-|
③口④④ |⑤-⑥-|
①口口② |⑦-⑧-|
39
⑦⑦口口 |①-②-|
⑤口口⑥ |③-④-|
③口④④ |⑤-⑥-|
①口口② |⑦---|
40
口口口口 |①-②③|
⑤⑤⑥⑥ |④-⑤-|
③口④④ |⑥---|
①①口② |----|
41
口口口口 |①-②③|
⑤⑤⑥⑥ |④-⑤-|
③口④④ |⑥---|
①①口② |----|
42
④口口口 |①---|
口口口③ |②---|
②口口④ |③---|
③①①② |④---|
43
⑤口②① |①---|
④③口⑤ |②---|
②①③④ |③-④-|
口口口口 |⑤---|
44
口⑤②① |①-②-|
口④③口 |③-④-|
口口口口 |⑤---|
口口口口 |----|
45
口口口口 |①-②-|
口口口口 |③-④-|
①②⑤口 |⑤---|
口③④口 |----|
46
口①③口 |①-②-|
口口②口 |--③-|
口④⑥口 |④-⑤-|
口口⑤口 |--⑥-|
47
口①口口 |①-②-|
口③②口 |--③-|
④口⑥⑤ |④-⑤⑥|
口口⑦口 |⑦---|
48
口①③口 |①-②-|
口口②口 |--③-|
口④⑥口 |④-⑤-|
口口⑤口 |--⑥-|
49
①⑤⑥③ |①-②-|
口⑦⑧口 |③-④-|
④口口② |⑤⑥⑦⑧|
口⑨⑩口 |⑨-⑩-|
50
⑦口⑧⑧ |①-②-|
⑤口口⑥ |③-④-|
③口④④ |⑤-⑥-|
①口口② |⑦-⑧-|
51
⑦⑦口口 |①-②-|
⑤口口⑥ |③-④-|
③口④④ |⑤-⑥-|
①口口② |⑦---|
52
口口口口 |①-②③|
⑤⑤⑥⑥ |④-⑤-|
③口④④ |⑥---|
①①口② |----|
53
口口口口 |①-②③|
⑤⑤⑥⑥ |④-⑤-|
③口④④ |⑥---|
①①口② |----|
54
⑥口口⑥ |①-②-|
⑤口口⑤ |③-④-|
口③④口 |⑤---|
口①②口 |⑥---|
55
口⑥⑥口 |①-②-|
口⑤⑤口 |③-④-|
③口口④ |⑤---|
①口口② |⑥---|
56
①口⑥⑥ |①-②-|
⑤⑤口② |③-④-|
③口口口 |⑤---|
口口口④ |⑥---|
57
①②口口 |①-②-|
口口④③ |③-④-|
口口口口 |⑤---|
口⑤⑤口 |----|
58
口口⑥口 |①---|
①⑤口② |②---|
②口④① |③-④-|
口③口口 |⑤-⑥-|
59
①口⑤口 |①-②-|
②口④口 |③---|
口口口口 |④---|
口口③口 |⑤---|
60
口口⑥口 |①---|
①⑤口② |②---|
②口④① |③-④-|
口③口口 |⑤-⑥-|
61
口①口口 |①-②-|
口口②口 |③---|
口③口口 |④---|
口口④口 |----|
62
口口⑥口 |①---|
①⑤口② |②---|
②口④① |③-④-|
口③口口 |⑤-⑥-|
63
①口⑤口 |①-②-|
②口④口 |③---|
口口口口 |④---|
口口③口 |⑤---|
64
口口⑥口 |①---|
①⑤口② |②---|
②口④① |③-④-|
口③口口 |⑤-⑥-|
65
口①口口 |①-②-|
口口②口 |③---|
口③口口 |④---|
口口④口 |----|
66
口①口② |----|
①口②口 |①---|
口口口口 |②---|
口口口口 |----|
67
①口②口 |①---|
口①口② |②---|
④口口④ |③---|
③口口③ |④---|
68
口②②口 |----|
口口口口 |①---|
口口口口 |②---|
口①①口 |----|
69
①⑤⑤① |①---|
②①①② |②---|
①②②① |③-④-|
②④③② |⑤---|
70
②口口② |----|
口口口③ |①---|
①口口① |②---|
口口口口 |--③-|
71
口②①口 |①-②-|
③口口口 |③-④-|
④口口⑦ |⑤-⑥-|
口⑤⑥口 |⑦---|
72
④口口④ |----|
③口口③ |①-②-|
口②②口 |③-④-|
①口口① |----|
73
⑦④⑤⑦ |--①-|
⑦⑦⑦⑦ |②-③-|
⑦③⑥⑦ |④⑤⑥-|
口①②口 |⑦---|
74
口口口口 |----|
口口口口 |①---|
口口口口 |②---|
①②③口 |③---|
75
口②③口 |①-②-|
①口口④ |③-④-|
⑤口⑥口 |⑤---|
口口口口 |⑥---|
76
口口口口 |----|
口口口口 |①---|
口口口口 |②---|
①②③口 |③---|
77
口②③④ |①-②-|
①口口口 |③-④-|
⑤口口口 |⑤-⑥-|
口⑥⑦⑧ |⑦-⑧-|
78
口口②口 |①---|
①口口口 |②---|
③④口口 |③-④-|
口口⑤⑥ |⑤-⑥-|
79
口口②口 |①---|
①口口口 |②---|
口口⑤⑥ |③-④-|
③④口口 |⑤-⑥-|
80
口口②口 |①---|
①口口口 |②---|
口口⑤⑥ |③-④-|
③④口口 |⑤-⑥-|
81
①②口口 |①-②-|
口口③口 |③---|
④⑤⑤口 |④---|
口⑤⑤口 |⑤---|


不确定度: 0

最終更新:2012年11月27日 00:40