I'M IN THE MOOD FOR DANCING

BASIC

Level: 2
BPM: 105
Notes: 188

1
口口口口 |----|
口口口口 |----|
口口口口 |----|
口口口口 |----|
2
口口口口 |①---|
①口口口 |----|
口口口口 |----|
口口口口 |----|
3
口口口口 |①---|
口①口口 |----|
口口口口 |----|
口口口口 |----|
4
口口口口 |①---|
口口①口 |----|
口口口口 |----|
口口口口 |----|
5
口口口口 |①-②-|
口③⑤① |③---|
口②④口 |--④-|
口口口口 |⑤---|
6
口口口口 |①---|
口口口口 |----|
①口口口 |----|
口口口口 |----|
7
口口口口 |①---|
口口口口 |----|
口①口口 |----|
口口口口 |----|
8
口口口口 |①---|
口口口口 |----|
口口①口 |----|
口口口口 |----|
9
口③⑤口 |①-②-|
口②④口 |③---|
口口口① |--④-|
口口口口 |⑤---|
10
①口③口 |①---|
口②口④ |②---|
口口口口 |③---|
口口口口 |④---|
11
口③口① |①---|
④口②口 |②---|
口口口口 |③---|
口口口口 |④---|
12
口口口口 |①---|
口②④口 |②---|
口①③口 |③---|
口口口口 |④---|
13
口口口口 |①---|
口口口口 |②---|
口口口口 |③---|
④③②① |④---|
14
口口口口 |①---|
口②口④ |②---|
①口③口 |③---|
口口口口 |④---|
15
口口口口 |①---|
④口②口 |②---|
口③口① |③---|
口口口口 |④---|
16
口口口口 |①---|
口①③口 |②---|
口②④口 |③---|
口口口口 |④---|
17
口口④口 |①---|
口③口口 |②---|
口口②口 |③---|
口①口口 |④---|
18
④口口④ |①---|
②③③② |②---|
口①①口 |③---|
口口口口 |④---|
19
④口口口 |①---|
口③口口 |②---|
②口口口 |③---|
口①口口 |④---|
20
口口口④ |①---|
口口③口 |②---|
口口口② |③---|
口口①口 |④---|
21
口口口口 |①---|
口②③口 |----|
口①①口 |--②-|
口口口口 |③---|
22
②①①② |①---|
口口口口 |----|
口口口口 |②---|
口口口口 |----|
23
口口口口 |①---|
④①①④ |②---|
③②②③ |③---|
口口口口 |④---|
24
口④④口 |①---|
口③③口 |②---|
口②②口 |③---|
口①①口 |④---|
25
①口口口 |①---|
口口口② |②---|
③口口口 |③---|
口口口④ |④---|
26
口④口口 |①---|
③口口口 |②---|
口②口口 |③---|
①口口口 |④---|
27
口口①口 |①---|
口口口② |②---|
口口③口 |③---|
口口口④ |④---|
28
口②②口 |①---|
口①①口 |②---|
口③③口 |③---|
口④④口 |④---|
29
口口口口 |①---|
口口口口 |②---|
②③③② |③---|
①④④① |④---|
30
①口③口 |①---|
口②口④ |②---|
口口口口 |③---|
口口口口 |④---|
31
口③口① |①---|
④口②口 |②---|
口口口口 |③---|
口口口口 |④---|
32
口口口口 |①---|
口口口口 |②---|
①②③④ |③---|
口口口口 |④---|
33
④口口口 |①-②-|
③口口口 |③-④-|
②口口口 |----|
①口口口 |----|
34
口口口④ |①-②-|
口口口③ |③-④-|
口口口② |----|
口口口① |----|
35
口④④口 |①-②-|
口③③口 |③-④-|
口②②口 |----|
口①①口 |----|
36
④口口④ |①-②-|
③口口③ |③-④-|
②口口② |----|
①口口① |----|
37
口口口口 |①---|
口口口口 |----|
口口口口 |----|
口①①口 |----|
38
口口口口 |①---|
口口口口 |----|
口①①口 |----|
口口口口 |----|
39
口口口口 |①---|
口①①口 |----|
口口口口 |----|
口口口口 |----|
40
口①①口 |①---|
②口口② |②---|
口③③口 |③---|
④口口④ |④---|
41
口口口口 |①---|
口口口口 |----|
口口口口 |----|
口①①口 |----|
42
口口口口 |①---|
口口口口 |----|
口①①口 |----|
口口口口 |----|
43
口口口口 |①---|
口①①口 |----|
口口口口 |----|
口口口口 |----|
44
口①①口 |①---|
②口口② |②---|
口③③口 |③---|
④口口④ |④---|
45
口口口口 |①---|
口口口口 |----|
口口口口 |----|
口①①口 |----|
46
口口口口 |①---|
口口口口 |----|
口①①口 |----|
口口口口 |----|
47
口口口口 |①---|
口①①口 |----|
口口口口 |----|
口口口口 |----|
48
口①①口 |①---|
口口口口 |----|
口口口口 |----|
口口口口 |----|


不确定度: 0

最終更新:2012年11月27日 00:40