I'M IN THE MOOD FOR DANCING

ADVANCED

Level: 4
BPM: 105
Notes: 342

1
口口口口 |----|
口口口口 |----|
口口口口 |----|
口口口口 |----|
2
④口口口 |①---②-|
③口口口 |--③---|
②①①口 |④---|
口口口口 |----|
3
口口口④ |①---②-|
口口口③ |--③---|
口①①② |④---|
口口口口 |----|
4
④口口④ |①---②-|
③口口③ |--③---|
②①①② |④---|
口口口口 |----|
5
口③⑤口 |①-②-|
口②④口 |③---|
口①①口 |--④-|
口口口口 |⑤---|
6
④口口口 |①---②-|
③口口口 |--③---|
②①①口 |④---|
口口口口 |----|
7
口口口④ |①---②-|
口口口③ |--③---|
口①①② |④---|
口口口口 |----|
8
④口口④ |①---②-|
③口口③ |--③---|
②①①② |④---|
口口口口 |----|
9
②②④④ |--①-|
①①③③ |②---|
口口口口 |--③-|
口口口口 |④---|
10
①②③④ |①---|
口口口口 |②---|
④③②① |③---|
口口口口 |④---|
11
口口口口 |①---|
④③②① |②---|
口口口口 |③---|
①②③④ |④---|
12
口③③口 |①---|
口②②口 |②---|
口①①口 |--③-|
口口口口 |----|
13
口口口口 |①---|
④口口④ |②---|
口③③口 |③---|
①②②① |④---|
14
④口④口 |①---|
口③口③ |②---|
②口②口 |③---|
口①口① |④---|
15
口①口① |①---|
②口②口 |②---|
⑤③⑤③ |③---|
④口④口 |④-⑤-|
16
②②②② |①---|
①口①口 |②---|
口口口口
口口口口

口口口口
③③③③
口口口口 |--③-|
口口口口 |----|
17
口口口口 |①---|
口口口口 |②---|
①④④① |③---|
②③③② |④---|
18
①口①口 |①---|
口②口② |②---|
③口③口 |③---|
口④口④ |④---|
19
口④口④ |①---|
③口③口 |②---|
口②口② |③---|
①口①口 |④---|
20
⑧口口④ |①-②-|
⑦口口③ |③-④-|
⑥口口② |⑤-⑥-|
⑤口口① |⑦-⑧-|
21
口①口① |①---|
②口②口 |②---|
口③口③ |③---|
④口④口 |④---|
22
口口口口 |①---|
口口④③ |②---|
①②口口 |③---|
口口口口 |④---|
23
口口③口 |①---|
口①②口 |②---|
口②①口 |③---|
口③口口 |----|
24
口口口口 |①---|
④③②① |②---|
①②③④ |③---|
口口口口 |④---|
25
口④④口 |①---|
口③③口 |②---|
口②②口 |③---|
口①①口 |④---|
26
④口④口 |①---|
口③口③ |②---|
②口②口 |③---|
口①口① |④---|
27
口③口① |①---|
④口②口 |②---|
口③口① |③---|
④口②口 |④---|
28
①口③口 |①---|
口②口④ |②---|
①口③口 |③---|
口②口④ |④---|
29
④口口① |①---|
③口口② |②---|
②口口③ |③---|
①口口④ |④---|
30
口口口口 |①---|
①口③口 |②---|
①②③④ |③---|
口②口④ |④---|
31
口③口① |①---|
④③②① |②---|
④⑤②口 |③---|
口口口口 |④-⑤-|
32
口口口口 |①---|
口③③② |②---|
口口①② |--③-|
口口口口 |----|
33
④口④口 |①-②-|
口③口③ |③-④-|
②口②口 |----|
口①口① |----|
34
口④口④ |①-②-|
③口③口 |③-④-|
口②口② |----|
①口①口 |----|
35
口口口口 |①-②-|
①②②① |③-④-|
④③③④ |----|
口口口口 |----|
36
①②口口 |①-②-|
④③口口 |③-④-|
口口③④ |----|
口口②① |----|
37
④口口口 |①---②-|
③②①① |--③---|
①①②③ |④---|
口口口④ |----|
38
口口口④ |①---②-|
①①②③ |--③---|
③②①① |④---|
④口口口 |----|
39
④口口口 |①---②-|
③②①① |--③---|
①①②③ |④---|
口口口④ |----|
40
④口④口 |①---|
口③口③ |②---|
②口②口 |③---|
口①口① |④---|
41
④口口口 |①---②-|
③②①① |--③---|
①①②③ |④---|
口口口④ |----|
42
④口口口 |①---②-|
③②①① |--③---|
①①②③ |④---|
口口口④ |----|
43
口口口④ |①---②-|
①①②③ |--③---|
③②①① |④---|
④口口口 |----|
44
④口④口 |①---|
口③口③ |②---|
②口②口 |③---|
口①口① |④---|
45
口口口口 |①---|
口口①口 |----|
口①口口 |----|
口口口口 |----|
46
口口口口 |----|
口口口口 |----|
口口口口 |----|
口口口口 |----|
47
口口口口 |①---|
口①口口 |----|
口口①口 |----|
口口口口 |----|
48
口口口口 |①---|
口口①口 |----|
口①口口 |----|
口口口口 |----|


不确定度: 0

最終更新:2012年11月27日 00:39