逆ナンされたのにドタキャン!!
good-cool ft. すわひでお

ADVANCED

Level: 8
BPM: 194
Notes: 589

1
口口口口 |----|
口口口口 |----|
口口口口 |----|
口口口口 |----|
2
口口口口 |①---|
①①①① |②---|
②③④口 |③---|
口⑤⑤口 |④-⑤-|
3
口④④口 |----|
口③②① |①---|
口口口口 |②---|
口口口口 |③-④-|
4
口口口口 |----|
口口口口 |①---|
①③口① |②---|
口②口口 |③---|
5
口口口口 |①---|
⑤①④⑤ |②---|
⑤口③⑤ |③---|
口口②口 |④-⑤-|
6
①口口口 |----|
口②口口 |①---|
口口③口 |②---|
口口口口 |③---|
7
口④⑤① |①---|
口口②口 |②---|
⑥③口⑥ |③-④-|
口⑥⑥口 |⑤-⑥-|
8
口口口口 |----|
①②③口 |①---|
口口口口 |②---|
口口口口 |③---|
9
口④⑤口 |①---|
⑥口口⑥ |②---|
口③②① |③-④-|
⑥口口⑥ |⑤-⑥-|
10
口口口口 |----|
口①②口 |①---|
口③口口 |②---|
口口口口 |③---|
11
③口口③ |①---|
口口口口 |②---|
②口①② |③---|
口口口口 |----|
12
③口口④ |①---|
口②②口 |②---|
⑤口口口 |--③-|
口①①口 |④-⑤-|
13
口口口口 |①---|
口④④口 |②-③-|
口口口① |----|
口②③口 |④---|
14
③④⑤口 |①---|
②口口② |②---|
口口口口 |--③-|
①口口① |④-⑤-|
15
口口口① |①---|
口口口口 |②-③-|
口②③口 |--④-|
口④⑤口 |⑤---|
16
②口口② |①---|
③④⑤口 |②---|
①口口① |--③-|
口口口口 |④-⑤-|
17
口④④口 |①---|
口口口① |②-③-|
口④④口 |--④-|
口②③口 |----|
18
口⑤口口 |①-②-|
口口⑥口 |③-④-|
②⑦口④ |--⑤-|
①口口③ |⑥-⑦-|
19
口③④口 |--①-|
②口口② |--②-|
口口口口 |--③-|
口①①口 |④---|
20
口口口口 |①---|
②③⑤② |②---|
口④口口 |--③-|
①口口① |④-⑤-|
21
口口口口 |①---|
④口口⑤ |②-③-|
②口①③ |--④-|
口口口口 |⑤---|
22
口②②口 |①---|
口口口口 |②---|
③④⑤口 |--③-|
口①①口 |④-⑤-|
23
④口口⑤ |①---|
②口口③ |②-③-|
口口口① |--④-|
口口口口 |⑤---|
24
口口口口 |①---|
口②②口 |②---|
口⑤④③ |--③-|
口①①口 |④-⑤-|
25
④口口③ |①-②-|
②口口口 |--③-|
①口口口 |--④-|
口口口口 |----|
26
口口口口 |①-②-|
口②④口 |③-④-|
⑤口口⑥ |--⑤-|
①⑦⑦③ |⑥-⑦-|
27
口①①口 |--①-|
③口口④ |--②-|
口②②口 |----|
口口口口 |③-④-|
28
口⑤⑤口 |①---|
口②②口 |②---|
口③④口 |③-④-|
①口口① |--⑤-|
29
口口口口 |----|
口口口口 |①---|
②③④口 |--②-|
口①①口 |③-④-|
30
口口口口 |①---|
②④⑤③ |②-③-|
口口口① |--④-|
口口口口 |⑤---|
31
口②②口 |①---|
④口口③ |②---|
口口口口 |----|
口①①口 |③-④-|
32
口③④口 |①---|
口口口口 |②---|
口①①口 |③-④-|
②⑤⑤② |--⑤-|
33
①口口① |----|
口②③口 |①---|
口④口口 |--②-|
口口口口 |③-④-|
34
⑤口口⑤ |①---|
③口口③ |②-③-|
④口①④ |--④-|
②口口② |⑤---|
35
口②②口 |①---|
口③③口 |②---|
口③③口 |--③-|
口①①口 |----|
36
③口口口 |①---|
②口口⑥ |②-③-|
口口口⑤ |--④-|
①口口④ |⑤-⑥-|
37
口口②① |①-②-|
口④④口 |--③-|
口口口口 |--④-|
口③③口 |----|
38
④⑤⑥口 |①---|
口口口口 |②-③-|
①口②③ |--④-|
口口口口 |⑤-⑥-|
39
口口口① |①---|
口口口口 |②-③-|
口②③口 |----|
口口口口 |----|
40
口口口口 |①---|
②①②① |②---|
③④⑤口 |--③-|
①②①② |④-⑤-|
41
④③③口 |①---|
口口口口 |--②-|
口口口① |--③-|
口②②口 |--④-|
42
口口口口 |①-②-|
①②③④ |③-④-|
⑧⑦⑥⑤ |⑤-⑥-|
口口口口 |⑦-⑧-|
43
②口口④ |①---|
口口口口 |②-③-|
口口口口 |--④-|
①口口③ |----|
44
口口口口 |①---|
②口口③ |②-③-|
④⑤⑥口 |--④-|
口①①口 |⑤-⑥-|
45
③口口④ |①-②-|
③①②④ |--③-|
口口口口 |--④-|
口口口口 |----|
46
口口口口 |①---|
④⑤⑥口 |②-③-|
口口口口 |--④-|
①口②③ |⑤-⑥-|
47
口口口口 |①---|
口口口① |②-③-|
口②③口 |----|
口口口口 |----|
48
口口口口 |①---|
②①②① |②---|
③④⑤口 |--③-|
①②①② |④-⑤-|
49
④②②④ |①-②-|
口口口口 |--③-|
口口口① |--④-|
③口口③ |----|
50
口口口口 |①-②-|
⑤①⑥② |--③-|
①③②④ |④---|
③⑤④⑥ |⑤-⑥-|
51
⑥⑥⑥⑥ |--①-|
口③口② |②-③-|
①口④口 |④---|
⑤⑤⑤⑤ |⑤-⑥-|
52
口口口口 |----|
①口②③ |①---|
口口口口 |②-③-|
口口口口 |----|
53
口⑤⑤口 |①---|
口口口口 |②---|
①口口② |③-④-|
口③④口 |--⑤-|
54
口口口口 |----|
①口口口 |①---|
口②③口 |②-③-|
口④口口 |--④-|
55
③口口③ |①---|
口口口口 |②-③-|
②口口② |----|
口口①口 |----|
56
口口口口 |----|
①口②③ |①---|
口口口口 |②-③-|
口口口口 |----|
57
口⑤⑤口 |①---|
口口口口 |②---|
①口口② |③-④-|
口③④口 |--⑤-|
58
口口口口 |----|
①口口口 |①---|
口②③口 |②-③-|
口④口口 |--④-|
59
③口口③ |①---|
口口口口 |②-③-|
②口口② |----|
口口①口 |----|
60
③④口口 |①---|
①②口口 |②---|
④③口口 |③---|
②①口口 |④---|
61
口口口口 |①---|
口口①② |②-③-|
口口③③ |----|
口口②① |----|
62
①②口口 |----|
②③口口 |①---|
口口口口 |②---|
口口口口 |③---|
63
口口口口 |①---|
口口①口 |②-③-|
口①②③ |----|
口口③口 |----|
64
口①①① |----|
口②②② |①---|
口③③③ |②---|
口口口口 |③---|
65
①①①口 |----|
②②②口 |①---|
③③③口 |②---|
口口口口 |③---|
66
口口口口 |----|
口口口口 |①---|
口口口口 |----|
口①①口 |----|
67
口口口口 |----|
口口口口 |----|
口口口口 |----|
口口口口 |----|
68
①口口② |①---|
口口口口 |②---|
口口口口 |③---|
③口口④ |④---|
69
①口口② |①---|
口口口口 |②---|
口口口口 |③---|
③口口④ |④---|
70
①口口② |①---|
口口口口 |②---|
口口口口 |③---|
③口口④ |④---|
71
①口口② |①---|
口口口口 |②---|
口口口口 |③---|
③口口④ |④---|
72
口口口口 |①---|
口①①口 |----|
口①①口 |----|
口口口口 |----|
73
口①口① |①---|
①②①② |②---|
②③②③ |③---|
③口③口 |----|
74
口①②③ |----|
①②③口 |①---|
口口口口 |②---|
口口口口 |③---|
75
④口口④ |①---|
③口口③ |②---|
②口口② |③---|
①口口① |④---|
76
口口口口 |①---|
口①①口 |----|
口①①口 |----|
口口口口 |----|
77
口口口口 |----|
口口口口 |----|
口口口口 |----|
口口口口 |----|
78
①⑧口口 |①-②-|
③⑥口口 |③-④-|
⑤④口口 |⑤-⑥-|
⑦②口口 |⑦-⑧-|
79
口口①⑧ |①-②-|
口口③⑥ |③-④-|
口口⑤④ |⑤-⑥-|
口口⑦② |⑦-⑧-|
80
②①①口 |①---|
④口口口 |----|
口⑤口口 |②-③-|
口③口口 |④-⑤-|
81
口④⑤口 |①-②-|
口②⑦口 |③-④-|
①口口⑧ |⑤-⑥-|
③口口⑥ |⑦-⑧-|
82
口⑤⑤④ |①-②-|
口口口② |③-④-|
口口①口 |⑤---|
口口③口 |----|
83
①⑧口口 |①-②-|
③⑥口口 |③-④-|
⑤④口口 |⑤-⑥-|
⑦②口口 |⑦-⑧-|
84
口口①⑧ |①-②-|
口口③⑥ |③-④-|
口口⑤④ |⑤-⑥-|
口口⑦② |⑦-⑧-|
85
②①①口 |①---|
④口口口 |----|
口⑤口口 |②-③-|
口③口口 |④-⑤-|
86
口④⑤口 |①-②-|
口②⑦口 |③-④-|
①口口⑧ |⑤-⑥-|
③口口⑥ |⑦-⑧-|
87
口⑤⑤④ |①-②-|
口⑥⑥② |③-④-|
口口①口 |⑤---|
口口③口 |⑥---|
88
③③③③ |①---|
④④④④ |②---|
①①①① |③---|
②②②② |④---|
89
③③③③ |①---|
④④④④ |②---|
①①①① |③---|
②②②② |④---|
90
③③③③ |①---|
④④④④ |②---|
①①①① |③---|
②②②② |④---|
91
口口口口 |①---|
口口口口 |----|
①①①① |----|
口口口口 |----|
92
口口口口 |----|
口①①口 |----|
口①①口 |----|
口口口口 |--①-|
93
口口口口 |----|
口口口口 |----|
口口口口 |----|
口口口口 |----|
94
口口口口 |①---|
①口口① |----|
①口口① |----|
口口口口 |----|


不确定度: 0

最終更新:2012年11月06日 22:59