I'M IN THE MOOD FOR DANCING

EXTREME

Level: 6
BPM: 105
Notes: 524

1
口口口口 |----|
口口口口 |----|
口口口口 |----|
口口口口 |----|
2
④口口④ |①---②-|
③①①③ |--③---|
②⑦⑧② |④---|
口⑤⑥口 |⑤⑥⑦⑧|
3
④口口④ |①---②-|
③①口③ |--③---|
②⑧⑦② |④---|
口⑥⑤口 |⑤⑥⑦⑧|
4
④口口④ |①---②-|
③口①③ |--③---|
②⑦⑧② |④---|
口⑤⑥口 |⑤⑥⑦⑧|
5
口口③② |①-②-|
口①③② |③---|
④⑤口口 |--④-|
④⑤口口 |⑤---|
6
④口口④ |①---②-|
③①①③ |--③---|
②⑦⑧② |④---|
口⑤⑥口 |⑤⑥⑦⑧|
7
④口口④ |①---②-|
③①口③ |--③---|
②⑧⑦② |④---|
口⑥⑤口 |⑤⑥⑦⑧|
8
④口口④ |①---②-|
③口①③ |--③---|
②⑦⑧② |④---|
口⑤⑥口 |⑤⑥⑦⑧|
9
口口③③ |①-②-|
口①②② |③---|
⑤⑤口口 |--④-|
④④口口 |⑤---|
10
口②口① |①-②-|
口④口③ |③-④-|
口⑥口⑤ |⑤-⑥-|
口⑧口⑦ |⑦-⑧-|
11
⑧口⑦口 |①-②-|
⑥口⑤口 |③-④-|
④口③口 |⑤-⑥-|
②口①口 |⑦-⑧-|
12
口口口口 |①---|
口口口口 |②---|
①①①①
②②②②

口口口口
口口口口
③③③③ |--③-|
口口口口 |----|
13
④③③④ |①-②-|
①②②① |③-④-|
口口口口
口口口口

口口口口
⑤⑥⑥⑤
口口口口 |--⑤-|
口口口口 |⑥---|
14
⑧口⑦口 |①-②-|
口⑥口⑤ |③-④-|
④口③口 |⑤-⑥-|
口②口① |⑦-⑧-|
15
口②口① |①-②-|
④口③口 |③-④-|
口⑥口⑤ |⑤-⑥-|
⑧口⑦口 |⑦-⑧-|
16
口口口口 |①---|
口①②③ |②---|
③②①口 |--③-|
口口口口 |----|
17
②③④口 |①-②-|
①口⑤口 |③-④-|
口⑤口① |----|
口④③② |⑤---|
18
口⑧①① |①-②-|
⑥口③③ |③-④-|
④口⑤⑤ |⑤-⑥-|
②口⑦⑦ |⑦-⑧-|
19
⑥口口口 |①-②-|
⑧④①口 |③-④-|
口②③⑦ |⑤-⑥-|
口口口⑤ |⑦-⑧-|
20
口⑤③口 |①-②-|
口⑦口① |③-④-|
②口⑧⑧ |⑤-⑥-|
口④⑥口 |⑦-⑧-|
21
口口口口 |①-②-|
口口②② |③---|
口①口口
口口③口

口口口口
④④⑤⑤
口口口口 |--④-|
口口口口 |⑤---|
22
口⑧①① |①-②-|
⑥口③③ |③-④-|
④口⑤⑤ |⑤-⑥-|
②口⑦⑦ |⑦-⑧-|
23
⑥口口口 |①-②-|
⑧④①口 |③-④-|
口②③⑦ |⑤-⑥-|
口口口⑤ |⑦-⑧-|
24
口⑤③口 |①-②-|
口⑦口① |③-④-|
②口⑧⑧ |⑤-⑥-|
口④⑥口 |⑦-⑧-|
25
口口④④ |①-②-|
口口②② |③-④-|
口①口口
口③口口

口口口口
⑤⑤⑥⑥
口口口口 |--⑤-|
口口口口 |⑥---|
26
⑧口⑦口 |①-②-|
口⑥口⑤ |③-④-|
④口③口 |⑤-⑥-|
口②口① |⑦-⑧-|
27
⑥口口⑥ |①---|
⑤②①⑤ |②---|
④①②④ |③-④-|
③口口③ |⑤-⑥-|
28
口口口口 |①---|
⑤②①⑤ |②---|
④①②④ |--③-|
③口口③ |④-⑤-|
29
③②口⑥ |①-②-|
④①口⑤ |③-④-|
⑤口①④ |--⑤-|
⑥口②③ |⑥---|
30
⑧口⑦口 |①-②-|
口⑥口⑤ |③-④-|
④口③口 |⑤-⑥-|
口②口① |⑦-⑧-|
31
口②口① |①-②-|
④口③口 |③-④-|
口⑥口⑤ |⑤-⑥-|
⑧口⑦口 |⑦-⑧-|
32
口口口口 |①---|
口①②③ |②---|
③②①口 |--③-|
口口口口 |----|
33
④③口① |①-②-|
③②①② |③-④-|
②①②③ |----|
①口③④ |----|
34
①口③④ |①-②-|
②①②③ |③-④-|
③②①② |----|
④③口① |----|
35
③④④③ |①-②-|
②③③② |③-④-|
①②②① |----|
口①①口 |----|
36
④③③④ |①-②-|
③②②③ |③-④-|
②①①② |----|
①口口① |----|
37
口口口口 |①---②-|
③口口③ |--③---|
②③③②
①②②①

④⑤⑤④
口④④口
⑤口口⑤ |④---⑤-|
口口口口 |----|
38
口口口口 |①---②-|
③口口③ |--③---|
②③③②
①②②①

④口口④
口④④口
⑤口口⑤ |④---⑤-|
口⑤⑤口 |----|
39
④口口④ |①---②-|
③④④③ |--③---|
②③③② |④---|
①②②① |----|
40
口口口口 |①-②-|
④口口④ |③-④-|
②③③②
口①①口

⑧⑤⑤⑧
口⑥⑥口
口⑦⑦口 |⑤-⑥-|
口口口口 |⑦-⑧-|
41
口口口口 |①---②-|
③口口③ |--③---|
②③③②
①②②①

④⑥⑥④
口④④口
⑤口口⑤ |④---⑤-|
口口口口 |--⑥---|
42
口口口口 |①---②-|
③口口③ |--③---|
②③③②
①②②①

④口口④
口④④口
⑤口口⑤ |④---⑤-|
口⑤⑤口 |----|
43
④口口④ |①---②-|
③④④③ |--③---|
②③③② |④---|
①②②① |----|
44
口口口口 |①-②-|
④口口④ |③-④-|
②③③②
口①①口

⑧⑤⑤⑧
口⑥⑥口
口⑦⑦口 |⑤-⑥-|
口口口口 |⑦-⑧-|
45
④口口④ |①---②-|
③④④③ |--③---|
②③③② |④---|
①②②① |----|
46
③口口③ |----①-|
②③③② |--②---|
①②②① |③---|
口①①口 |----|
47
③口口③ |----①-|
②③③② |--②---|
①②②① |③---|
口①①口 |----|


不确定度: 0

最終更新:2012年11月27日 00:39