Good bye little girl
Mi

BASIC

Level: 1
BPM: 110
Notes: 126

1
口口口口 |----|
口口口口 |----|
口口口口 |----|
口口口口 |----|
2
口口口口 |①---|
口口①口 |----|
口口口口 |----|
口口口口 |----|
3
口口口口 |①---|
口①口口 |----|
口口口口 |----|
口口口口 |----|
4
②口①口 |①---|
口口口口 |----|
口口口口 |----|
口口口口 |--②-|
5
口口口口 |----|
口口口口 |----|
口口口口 |----|
口口口口 |----|
6
口口口口 |①---|
口口①口 |----|
口口口口 |----|
口口口口 |----|
7
口口口口 |①---|
口①口口 |----|
口口口口 |----|
口口口口 |----|
8
②口①口 |①---|
口口口口 |----|
口口口口 |----|
口口口口 |--②-|
9
口口口口 |----|
口口口口 |----|
口口口口 |----|
口口口口 |----|
10
口口口口 |①---|
②口口① |----|
口口口口 |②---|
口口口口 |----|
11
口②①口 |①---|
口口口口 |----|
口口③口 |②---|
口口口口 |③---|
12
口口口口 |①---|
口①②口 |②---|
口③口口 |③---|
口口④口 |④---|
13
口口口口 |①---|
口口口口 |----|
口口口口 |----|
口①口口 |----|
14
口口口口 |①---|
口②口口 |----|
口口①口 |②---|
口口口口 |----|
15
口②①口 |①---|
口口③口 |②---|
口口口口 |③---|
口口口口 |----|
16
口口口口 |①---|
口①②口 |----|
口口口口 |②---|
口口口口 |----|
17
口口口口 |①---|
口口口口 |②---|
口①②口 |③---|
口③口口 |----|
18
口口口口 |①---|
口②口口 |----|
口口①口 |②---|
口口口口 |----|
19
口口口口 |①---|
口口①③ |----|
口②口口 |②---|
口口口口 |③---|
20
口①②口 |①---|
③口口口 |②---|
口口④口 |③---|
口口口口 |④---|
21
口口口口 |①---|
口口口口 |----|
口③口口 |②---|
口①②口 |③---|
22
口②口③ |①---|
口口①口 |②---|
口口口口 |③---|
口口口口 |----|
23
口口口口 |①---|
口①②口 |②---|
口③④口 |③---|
口口口口 |④---|
24
口口口口 |①---|
口口口口 |----|
口口口② |----|
口①口口 |②---|
25
口③②口 |①---|
口①口口 |②---|
口口口口 |----|
口口口口 |③---|
26
口口口口 |①---|
口②①口 |②---|
口④③口 |③---|
口口口口 |④---|
27
口口口口 |①---|
口④口口 |②---|
口口③口 |③---|
口②①口 |④---|
28
口口①口 |①---|
口口口口 |----|
口口口口 |----|
口口口口 |----|
29
口口口口 |①---|
①口口④ |②---|
口口②口 |③---|
口③口口 |④---|
30
口口口口 |①---|
口口口口 |②---|
口①口口 |----|
口口②口 |----|
31
口口口口 |----|
①口②口 |----|
口口口口 |①---|
口口口口 |②---|
32
口口口口 |①---|
口③口② |----|
口①口口 |②---|
口口口口 |③---|
33
口口口口 |①---|
②口口③ |----|
口口①口 |②---|
口口口口 |③---|
34
口口口口 |①---|
③口④口 |②---|
口①②口 |③---|
口口口口 |④---|
35
口口口口 |①---|
口口口口 |----|
口①口口 |②---|
口③②口 |③---|
36
口④口口 |①---|
口②③口 |②---|
口口①口 |③---|
口口口口 |④---|
37
口口口① |①---|
口口口口 |----|
口②③口 |②---|
口口口口 |③---|
38
口③②口 |①---|
口①④口 |②---|
口⑤口口 |③---|
口口口口 |④-⑤-|
39
口口①口 |----|
口②口口 |----|
口口口口 |①---|
口口口口 |②---|
40
口②口口 |①---|
口口③口 |----|
口口①口 |②---|
口口口口 |③---|
41
口口口口 |①---|
③口口② |----|
口①口口 |②---|
口口口口 |③---|
42
口②①口 |①---|
口④③口 |②---|
口口⑤口 |③---|
口口口口 |④-⑤-|
43
口口口口 |----|
口口口口 |--①-|
口口口② |----|
口①口口 |-②--|
44
口口口④ |①---|
③口口② |②---|
①口口口 |③---|
口口口口 |④---|
45
口①口口 |①---|
口口②口 |②---|
口③口口 |③---|
口口④口 |④---|
46
口口口口 |①---|
口口②口 |----|
口口口口 |----|
①口口口 |②---|
47
口口口口 |①---|
口①口口 |----|
口口②口 |----|
口口口口 |②---|
48
口口④口 |①---|
③口口② |②---|
口①口口 |③---|
口口口口 |④---|
49
口①口口 |①---|
口口口口 |----|
口口口口 |----|
口口口口 |----|


不确定度: 0

最終更新:2012年11月27日 00:36