Good bye little girl
Mi

EXTREME

Level: 4
BPM: 110
Notes: 250

1
口口口口 |----|
口口口口 |----|
口口口口 |----|
口口口口 |----|
2
①口②口 |①---|
口③口④ |②-③-|
口口口口 |--④-|
口口口口 |----|
3
口口口口 |①---|
①口②口 |②-③-|
口③口④ |--④-|
口口口口 |----|
4
口口口口 |①---|
口口口口 |②-③-|
①口②口 |--④-|
⑤③口④ |--⑤-|
5
口口口③ |--①-|
口②口口 |--②-|
口口①口 |--③-|
口口口口 |----|
6
①口②口 |①---|
口③口④ |②-③-|
口口口口 |--④-|
口口口口 |----|
7
口口口口 |①---|
①口②口 |②-③-|
口③口④ |--④-|
口口口口 |----|
8
口口口口 |①---|
口口口口 |②-③-|
①口②口 |--④-|
⑤③口④ |--⑤-|
9
口口口③ |--①-|
口②口口 |②---|
口口①口 |----|
口口口口 |--③-|
10
口①④口 |①---|
口口口② |----②--③|
口口③口 |----|
口口口口 |--④-|
11
①口口口 |①---|
口⑤②口 |----②--③|
口③④口 |----|
口口口口 |④-⑤-|
12
口口③口 |①---|
口④①口 |②---|
口②⑤口 |③-④-|
口⑥口口 |⑤-⑥-|
13
口口口口 |----|
口口口口 |----|
口口口口 |----|
口口口口 |----|
14
口④口① |①---|
口②⑤口 |----②--③|
口口③口 |----|
口口口口 |--④⑤|
15
口口口口 |①-②-|
口口口② |③-④-|
③①口口 |----|
口⑤口④ |--⑤-|
16
口口口口 |①---|
口④③口 |--②-|
口②①口 |③---|
口口口口 |--④-|
17
口口①⑤ |①---|
②口口口 |②---|
口口③口 |③-④-|
口④口口 |--⑤-|
18
口①口④ |①---|
口口口② |----②--③|
口口③口 |----|
口口口口 |--④-|
19
口⑤⑥口 |①-②-|
口①④口 |----③--④|
口③②口 |----|
口口口口 |⑤-⑥-|
20
口口口口 |①---|
①口口② |②---|
③口口④ |③-④-|
口⑤⑥口 |⑤-⑥-|
21
①口②口 |----|
口③口口 |--①-|
口口口口 |②---|
口口口口 |③---|
22
口②③口 |①-②-|
口④口① |③-④⑤|
口口⑤口
口口口口

口⑥口口
口口口口
口口口口 |----|
口口口口 |--⑥-|
23
口口口口 |①---|
口④①口 |②---|
口②⑤口 |③---|
口口③口 |④-⑤-|
24
口口口口 |----|
口口口口 |----|
①口口口 |--①-|
口③②口 |②-③-|
25
④口口⑤ |①---|
口②③口 |②-③-|
口口口① |----|
口口口口 |④-⑤-|
26
口口口口 |①---|
③①④② |②-③-|
⑤④①⑥ |④---|
口口口口 |⑤-⑥-|
27
口口口口 |①---|
口①口口 |②-③-|
口口①口
③口口②

⑦口口⑥
口⑦⑥口
⑤口口④ |④-⑤-|
口口口口 |⑥-⑦-|
28
口口①口 |----|
口口口口 |----|
口口口口 |----|
口口口口 |--①-|
29
口口⑥⑥ |①---|
①口②口 |②-③-|
口③口④ |④---|
口⑤口口 |⑤-⑥-|
30
口口口口 |--①-|
①①口口 |②---|
口口②② |----|
口口口口 |----|
31
①口口口 |----|
口①口② |----|
口口②口 |①---|
口口口口 |②---|
32
口口口口 |①---|
口口④口 |--②-|
①③口口 |③---|
口①②口 |④---|
33
口①②口 |①---|
③口⑥口 |--②-|
口⑥口④ |③-④-|
口⑤口口 |⑤-⑥-|
34
口①②口 |①--②|
口③④口 |③--④|
口⑤⑥口 |⑤-⑥-|
口⑦口口 |--⑦-|
35
口口口口 |----|
②口口口 |----|
口②口① |①---|
口口①口 |②---|
36
②口③① |①---|
口④①⑤ |②-③④|
⑥口⑦口 |--⑤-|
口⑧口口 |⑥-⑦⑧|
37
口口口口 |----|
口口③口 |----|
④②口口 |①-②-|
口口口① |③-④-|
38
②口①口 |①---|
口口③口 |②---|
口④⑤⑤ |③-④-|
⑥⑥口口 |⑤-⑥-|
39
口口口① |----|
②口①口 |----|
口②口口 |①---|
口口口口 |②---|
40
口口口口 |①---|
口口口口 |----|
口口口①
口口①口

口口⑤⑤
④④口口
口口③③ |②-③-|
②②口口 |④-⑤-|
41
口口口口 |----|
①口口② |--①-|
⑤③④口 |②-③-|
口⑤口口 |④-⑤-|
42
口口口口 |①---|
口②口口 |②---|
口口口①
口口①口

⑥④③⑤
口⑥⑤口
口口口口 |③-④-|
口口口口 |⑤-⑥-|
43
②口③口 |----|
口口口口 |--①-|
口口口① |----|
口口①口 |②-③-|
44
口口口口 |①-②③|
口①②口 |--④-|
口③④口
口口口口

口口口口
口口口口
口⑦口口 |⑤---|
口⑤口⑥ |⑥-⑦-|
45
②口③③ |①---|
④④①口 |②---|
口口口口 |③---|
口口口口 |④---|
46
②口口③ |①---|
口②③口 |----|
口口①① |----|
口口口口 |②-③-|
47
口口②口 |----|
③口口口 |----|
口口口口 |--①-|
口①口口 |②-③-|
48
口④③口 |①---|
④④③③ |②---|
②②口① |③---|
口②口口 |④---|
49
口口口口 |①---|
口口口口 |----|
口口①① |----|
口口①口 |----|


不确定度: 0

最終更新:2012年11月27日 00:35