FREE FREE
鈴木亜美 joins 中田ヤスタカ(capsule)

ADVANCED

Level: 4
BPM: 131
Notes: 262

1
口口口口 |----|
口①口口 |----|
口口①口 |----|
口口口口 |①---|
2
口口口② |①---|
③口①④ |②---|
④①口③ |③---|
②口口口 |④---|
3
①口口口 |①---|
④②②③ |②---|
③②②④ |③---|
口口口① |④---|
4
口④③口 |①---|
口②①口 |②---|
口①②口 |③---|
口③④口 |④---|
5
①口口口 |①---|
③②②④ |②---|
④②②③ |③---|
口口口① |④---|
6
口口口① |①---|
口口口口 |②---|
口③④口 |③---|
①②口口 |④---|
7
口④③口 |①---|
口口①② |②---|
口口口口 |③---|
口口口口 |④---|
8
口口口口 |①---|
口②①口 |②---|
③口口口 |③---|
口④口口 |④---|
9
口口口② |①---|
③口①④ |②---|
④①口③ |③---|
②口口口 |④---|
10
①口口口 |①---|
④②②③ |②---|
③②②④ |③---|
口口口① |④---|
11
口④③口 |①---|
口②①口 |②---|
口①②口 |③---|
口③④口 |④---|
12
①口口口 |①---|
③②②④ |②---|
④②②③ |③---|
口口口① |④---|
13
口口①口 |①---|
口③②口 |②---|
口④口口 |③---|
口口口口 |④---|
14
口口口口 |①---|
口口口口 |②---|
①④口口 |③---|
口②③口 |④---|
15
口口②口 |①---|
口口①口 |②---|
口口②口
口口口口

口③口③
④口④口
口口口口 |③---|
口口口口 |④---|
16
口口口口 |①---|
口口口口 |②---|
④①④① |③---|
②③②③ |④---|
17
②口②口 |①---|
口①口① |②---|
口口口口
口口口口

口③口③
口口口④
口口口口 |③---|
口口口口 |④---|
18
口口口口 |①---|
口口口口 |--②-|
口口①口 |----|
口②口口 |----|
19
⑤口口① |--①-|
口⑥②口 |②-③-|
口③口口 |④-⑤-|
④口口口 |--⑥-|
20
口口口口 |----|
口口口口 |----|
口口①口 |----|
口口口② |①-②-|
21
口口口口 |----|
口口口口 |----|
口口口口 |----|
口①口口 |①---|
22
口口③口 |①---|
口②口口 |②-③-|
口口①口 |----|
口口口口 |----|
23
①口口⑤ |--①-|
口②⑥口 |②-③-|
口⑦③口 |④--⑤|
口口口④ |--⑥⑦|
24
口口口口 |----|
口口口口 |----|
口口口口 |----|
口口口口 |----|
25
口口口口 |①---|
口口口口 |----|
②口口口 |----|
①口口口 |②---|
26
口口②口 |①---|
口①口口 |--②-|
口口口口 |----|
口口口口 |----|
27
口口口④ |--①-|
口口③口 |②-③-|
口②⑥口 |④-⑤-|
①口口⑤ |--⑥-|
28
②口口口 |①---|
口①口口 |--②-|
口口口口 |----|
口口口口 |----|
29
口口口口 |----|
口口口口 |----|
口口口口 |----|
①口口口 |①---|
30
口口口③ |①---|
口口口口 |②-③-|
口②①口 |----|
口口口口 |----|
31
口口口口 |----|
口③③口 |①---|
口②②口 |②---|
口①①口 |③---|
32
口①①口 |①---|
口口口口 |----|
口口口口 |----|
口口口口 |----|
33
口口口口 |①---|
①口口① |----|
①口口① |----|
②②②② |②---|
34
①①①① |①---|
②口⑤口 |--②-|
③口④口 |③-④-|
口口口口 |⑤---|
35
口口口口 |----|
口④口① |--①-|
口③口② |②-③-|
口口口口 |④---|
36
口④④口 |----|
口③③口 |--①-|
口②②口 |②-③-|
口①①口 |④---|
37
③③③③ |----|
口②口① |①---|
①口②口 |②---|
口口口口 |③---|
38
口口口口 |①---|
口口③口 |----|
口④口② |②-③-|
①①①① |④---|
39
口口口口 |----|
口②口④ |--①-|
①口③口 |②-③-|
口口口口 |④---|
40
口①①口 |----|
口②②口 |----|
口③③口 |①-②-|
口口口口 |③---|
41
口口口口 |----|
口口口口 |----|
①①①① |----|
口口口口 |①---|
42
口口口口 |①---|
①①①① |----|
口口口口
口口口口

②口口口
口口④口
口口口口 |②-③-|
口③口口 |④---|
43
口④③② |----|
口口口① |--①-|
口口口口 |②-③-|
口口口口 |④---|
44
口口②口 |----|
口口口口 |----|
口③口口 |①-②-|
口口口① |③---|
45
①口口② |----|
③③③③ |①---|
口口口口 |②---|
②口口① |③---|
46
口口口口 |①---|
口口口口 |----|
①①①①
口口口口

口口③口
口口口口
口④口口 |②-③-|
口口口② |④---|
47
口口口口 |----|
口口口口 |--①-|
①口口口 |②-③-|
②③④口 |④---|
48
口口②口 |----|
口口口口 |----|
口③口口 |①-②-|
口口口① |③---|
49
①口口口 |--①-|
②③口口 |②-③-|
口④⑤口 |④-⑤⑥|
口口⑥⑦ |--⑦-|


不确定度: 0

最終更新:2012年11月27日 00:34