FREE FREE
鈴木亜美 joins 中田ヤスタカ(capsule)

EXTREME

Level: 6
BPM: 131
Notes: 353

1
口口口口 |----|
口口口口 |----|
①①①① |----|
口口口口 |①---|
2
②口口口 |①---|
口口口② |②---|
口口口口
①①①①

口③④口
口口口口
口口口③ |③---|
口口口④ |④---|
3
口口口口 |①-②-|
⑤②①口 |--③-|
④①②③ |--④-|
③口⑤④ |--⑤-|
4
①②口口 |--①-|
口口口口 |--②-|
口口口口
②①口口

⑤口③④
④口口⑤
③口口口 |--③-|
口口口口 |④-⑤-|
5
口①口口 |--①-|
口②③口 |--②-|
口③②① |--③-|
口口口口 |----|
6
口③②① |----|
①口口口 |①---|
②口口口 |②---|
③口口口 |③---|
7
口口口口 |①-②-|
口①②⑤ |--③-|
③②①④ |--④-|
④⑤口③ |--⑤-|
8
④③②① |--①-|
口口口④ |--②-|
口口口③ |--③-|
口口①② |--④-|
9
④口②① |--①-|
①③口口 |--②-|
②口③口 |--③-|
口口口口 |--④-|
10
口口⑥口 |①-②-|
②③口口 |--③-|
①⑤口口 |④-⑤-|
口④口口 |--⑥-|
11
⑥口口口 |①-②-|
口口②③ |--③-|
口口①⑤ |④-⑤-|
口口口④ |--⑥-|
12
口②①口 |①-②-|
⑥口口口 |--③-|
口口口⑥ |④-⑤-|
口③⑤④ |--⑥-|
13
口⑤④③ |①-②-|
口①②口 |--③-|
口②①口 |④-⑤-|
③④⑤口 |----|
14
①口口⑦ |①②③④|
③②⑧⑨ |⑤⑥--|
⑤④⑩⑪ |⑦⑧⑨⑩|
口⑥⑫口 |⑪⑫--|
15
①口口⑦ |①②③④|
③②⑧⑨ |⑤⑥--|
⑤④⑩⑪ |⑦⑧⑨⑩|
口⑥⑫口 |⑪⑫--|
16
⑮①②⑯ |①②③④|
⑬③④⑭ |⑤⑥⑦⑧|
⑪⑤⑥⑫ |⑨⑩⑪⑫|
⑨⑦⑧⑩ |⑬⑭⑮⑯|
17
③②②口 |--①-|
口①①口 |--②-|
口口口口 |----|
口口口口 |③---|
18
口口口口 |①---|
口口口① |②-③-|
口②③口 |----|
口③②口 |----|
19
口口①口 |--①-|
口②④口 |②-③-|
③⑤口口 |④-⑤-|
⑥口口口 |--⑥-|
20
口口口口 |----|
口口口口 |----|
口口口② |----|
口口①口 |①-②-|
21
口①口口 |----|
口口口口 |----|
口口口口 |----|
口口口口 |①---|
22
口口口口 |①---|
口口口② |②-③-|
①口口口 |----|
口口③口 |----|
23
口口口口 |--①-|
口口⑥③ |②-③-|
口⑤②口 |④--⑤|
④①口口 |--⑥-|
24
口口口① |①---|
口口口口 |----|
口口口口 |----|
口口口口 |----|
25
口①口口 |①---|
①口口口 |----|
口口口口 |----|
口口口② |②---|
26
口③②口 |①---|
口②③口 |②-③-|
①口口口 |----|
口口口口 |----|
27
口口口口 |--①-|
口口口③ |②-③-|
②②口口
口口①口

口④④口
⑤口口口
口⑥⑥口 |④-⑤-|
口口口口 |--⑥-|
28
口口口口 |①---|
口口口口 |--②-|
口口口口 |----|
口②②① |----|
29
口口口① |----|
口①口口 |----|
口口口口 |----|
口口口口 |①---|
30
口口口口 |①---|
①口口口 |②-③-|
③口①② |----|
口②③口 |----|
31
②①③口 |----|
①②口③ |①---|
口③①② |②---|
③口②① |③---|
32
口口口① |①---|
口口①口 |----|
①口口口 |----|
口①口口 |----|
33
口口口口 |①---|
口口①① |----|
①①口口
口口口口

口②②口
口口口口
口③③口 |----|
口口口口 |②③--|
34
口口口口 |①②--|
④①①⑤ |--③-|
口口口口 |④-⑤-|
⑥②②③ |⑥---|
35
①口口④ |----|
口口口口 |--①-|
③口口② |②-③-|
口口口口 |④---|
36
④④④④ |----|
③③③③ |--①-|
②②②② |②-③-|
①①①① |④---|
37
口口口口 |----|
②口口① |①---|
①④④② |②---|
口③③口 |③④--|
38
⑤②②⑤ |①②--|
④①①④ |----|
③口口③ |③-④-|
口口口口 |⑤---|
39
口③④口 |----|
口④③口 |--①-|
口①②口 |②-③-|
口②①口 |④---|
40
①口口② |----|
③口口③ |----|
③口口③ |①-②-|
②口口① |③---|
41
口口口① |----|
②③③② |----|
口口口口 |①---|
①口口口 |②③--|
42
③④⑤口 |①②--|
口口口口 |----|
①②②① |③-④-|
口⑤④③ |⑤---|
43
口口口口 |----|
④③②① |--①-|
①②③④ |②-③-|
口口口口 |④---|
44
口口③③ |----|
②②口口 |----|
口口①① |①-②-|
口口口口 |③---|
45
口口口口 |----|
④口口④ |①---|
①③③② |②---|
②口口① |③④--|
46
②口口② |①②--|
口①①口 |----|
口口口口
口口口口

⑤④③口
口口口口
口口口口 |③-④-|
口③④⑤ |⑤---|
47
口①①口 |----|
④④口口 |--①-|
口口③③ |②-③-|
口②②口 |④---|
48
③③口口 |----|
口口②② |----|
①①口口 |①-②-|
口口口口 |③---|
49
⑦⑦口口 |--①-|
③⑥口口 |②-③-|
口②⑤口 |④-⑤⑥|
口口①④ |--⑦-|


不确定度: 0

最終更新:2012年11月27日 00:33