endscape

ADVANCED

Level: 5
BPM: 177
Notes: 297

1
口口口口 |----|
口口口口 |----|
口口口口 |----|
口口口口 |----|
2
口口口口 |①---|
①①①① |----|
口口口口 |----|
口口口口 |----|
3
①口口① |①---|
②口口② |②---|
③口口③ |③---|
④口口④ |④---|
4
①①①① |①---|
口口口口 |----|
口口口口 |----|
口口口口 |----|
5
口口口口 |①---|
口①①口 |----|
②口口② |②---|
口口口口 |----|
6
口口②口 |①---|
口口③口 |②---|
口口④口 |③---|
口①①口 |④---|
7
口口口口 |①---|
口②口口 |----|
口③口口 |②---|
口①①口 |③---|
8
①口口① |①---|
②口口② |----|
口口口口 |②---|
口口口口 |----|
9
口口口口 |①---|
口①口口 |----|
口口②口 |②---|
口口口口 |----|
10
口口口④ |①---|
口口口③ |②---|
口口口② |③---|
口口口① |④---|
11
④口口口 |①---|
③口口口 |②---|
②口口口 |③---|
①口口口 |④---|
12
口口④口 |①---|
口口③口 |②---|
口口②口 |③---|
口口①口 |④---|
13
口④口口 |①---|
口③口口 |②---|
口②口口 |③---|
口①口口 |④---|
14
①口口③ |①---|
④口口② |②---|
口口口口 |③---|
口口口口 |④---|
15
口①口口 |①---|
口口②口 |②---|
口③口口 |③---|
口口④口 |④---|
16
口口口口 |①---|
口口口口 |②---|
④③②① |③---|
口口口口 |④---|
17
口口口口 |①---|
口口口口 |②---|
口口口口 |③---|
①②③④ |④---|
18
①口③口 |①---|
口②口④ |②---|
口口口口 |③---|
口口口口 |④---|
19
口口口口 |①---|
口口口口 |②---|
①口③口 |③---|
口②口④ |④---|
20
①口口口 |①---|
口②口口 |②---|
口口③口 |③---|
口口口④ |④---|
21
口口口① |①---|
口口②口 |②---|
口③口口 |③---|
④口口口 |④---|
22
口②口④ |①---|
①口③口 |②---|
口口口口 |③---|
口口口口 |④---|
23
口口口口 |①---|
口口口口 |②---|
口②口④ |③---|
①口③口 |④---|
24
④口口口 |①---|
口③口口 |②---|
②口口口 |③---|
口①口口 |④---|
25
口口口④ |①---|
口口③口 |②---|
口口口② |③---|
口口①口 |④---|
26
口①②口 |①---|
口③④口 |②---|
口口口口 |③---|
口口口口 |④---|
27
口口口口 |①---|
口口口口 |②---|
口①②口 |③---|
口③④口 |④---|
28
口口口④ |①---|
口口③口 |②---|
口②口口 |③---|
①口口口 |④---|
29
④口口口 |①---|
口③口口 |②---|
口口②口 |③---|
口口口① |④---|
30
口口口④ |①---|
口口③口 |②---|
口②口口 |③---|
①口口口 |④---|
31
④口口口 |①---|
口③口口 |②---|
口口②口 |③---|
口口口① |④---|
32
口口口口 |①---|
口②①口 |--②-|
口①②口 |----|
口口口口 |----|
33
①口口④ |①---|
②口口③ |②---|
③口口② |③---|
④口口① |④---|
34
口①①口 |①---|
口②②口 |--②-|
口③③口 |----|
口口口口 |③---|
35
口口口口 |----|
口口口口 |----|
口口口口 |----|
口口口口 |----|
36
④③②① |①---|
口口口口 |②---|
口口口口 |③---|
口口口口 |④---|
37
口口口口 |----|
口口口口 |----|
口口口口 |----|
口口口口 |----|
38
口口口口 |①---|
①口口② |----|
口口口口 |----|
口口口口 |②---|
39
口①口口 |----|
口口②口 |----|
口③口口 |①-②-|
口口④口 |③-④-|
40
口口口口 |----|
口口②口 |--①-|
口口①口 |-②--|
口口口口 |----|
41
口口口① |①---|
口口②口 |----|
口口口口 |②---|
口口口口 |----|
42
口口口口 |①---|
口口口口 |----|
口①口口 |②---|
②口口口 |----|
43
口口口口 |①---|
口口口口 |----|
口口口口 |②---|
口①②口 |----|
44
口口口口 |①---|
①①①① |----|
口口口口 |----|
口口口口 |----|
45
①口口① |①---|
②口口② |②---|
③口口③ |③---|
④口口④ |④---|
46
①①①① |①---|
口口口口 |----|
口口口口 |----|
口口口口 |----|
47
口口口口 |①---|
口①①口 |----|
②口口② |②---|
口口口口 |----|
48
口口②口 |①---|
口口③口 |②---|
口口④口 |③---|
口①①口 |④---|
49
口②口口 |①---|
口③口口 |②---|
口④口口 |③---|
口①①口 |④---|
50
①口口② |①---|
③口口④ |②---|
口口口口 |③---|
口口口口 |④---|
51
口口口口 |①---|
口口口口 |②---|
③口口④ |③---|
①口口② |④---|
52
①口①口 |①---|
口②口② |②---|
③口③口 |③---|
口④口④ |④---|
53
口①口① |①---|
②口②口 |②---|
口③口③ |③---|
④口④口 |④---|
54
①口口口 |①---|
口②口口 |②---|
口口③口 |③---|
口口口④ |④---|
55
口口口① |①---|
口口②口 |②---|
口③口口 |③---|
④口口口 |④---|
56
①①③③ |①---|
④④②② |②---|
口口口口 |③---|
口口口口 |④---|
57
口口口口 |①---|
口口口口 |②---|
①①③③ |③---|
④④②② |④---|
58
口口口口 |①---|
④③②① |②---|
①②③④ |③---|
口口口口 |④---|
59
①②③④ |①---|
口口口口 |②---|
口口口口 |③---|
④③②① |④---|
60
④③③④ |①---|
口②②口 |②---|
口①①口 |③---|
口口口口 |④---|
61
口口口口 |①---|
①口口① |②---|
②口口② |③---|
③④④③ |④---|
62
①口②② |①---|
③口④④ |②---|
口口口口 |③---|
口口口口 |④---|
63
口口口口 |①---|
口口口口 |②---|
①口②② |③---|
③口④④ |④---|
64
口④口口 |①---|
口③口口 |②---|
口②口口 |③---|
口①口口 |④---|
65
①口口① |①---|
口口②口 |----|
口口口口 |②---|
口口口口 |----|
66
口口口口 |①---|
口①口口 |----|
口口口口 |----|
口口口口 |----|

BPM: 172
67
①①②② |①---|
口口口口 |----|
口口口口 |②---|
口口口口 |----|
68
口口口口 |①---|
口①①口 |----|
口①①口 |----|
口口口口 |----|


不确定度: 0

最終更新:2012年11月27日 00:33