endscape

EXTREME

Level: 6
BPM: 177
Notes: 410

1
口口口口 |----|
口口口口 |----|
口口口口 |----|
口口口口 |----|
2
①①①① |①---|
口口口口 |----|
口口口口 |----|
口口口口 |----|
3
①①①① |①---|
口③②口 |②-③-|
口⑤④口 |④-⑤-|
口⑦⑥口 |⑥-⑦-|
4
①①①① |①---|
口口口口 |----|
口口口口 |----|
口口口口 |----|
5
口口口口 |①---|
①①①① |----|
②②②② |②---|
口口口口 |----|
6
口③②口 |①---|
口⑤④口 |②-③-|
口⑦⑥口 |④-⑤-|
①①①① |⑥-⑦-|
7
口口口口 |①---|
口③③口 |----|
②口口② |②---|
①①①① |③---|
8
①①①① |①---|
口口口口 |----|
口口口口 |----|
口口口口 |----|
9
口口口口 |①---|
口①①口 |----|
口②②口 |②---|
口口口口 |----|
10
口口口④ |①---|
口口口③ |②---|
口口口② |③---|
口口口① |④---|
11
口④口口 |①---|
口③口口 |②---|
口②口口 |③---|
口①口口 |④---|
12
口口④口 |①---|
口口③口 |②---|
口口②口 |③---|
口口①口 |④---|
13
④口口口 |①---|
③口口口 |②---|
②口口口 |③---|
①口口口 |④---|
14
④口④口 |①---|
口③③口 |②---|
口②口② |③---|
①①口口 |④---|
15
口④口④ |①---|
口③③口 |②---|
②口②口 |③---|
口①①口 |④---|
16
口口口④ |①---|
①口③② |②---|
②③口① |③---|
④口口口 |④---|
17
①口口口 |①---|
口②③④ |②---|
④③②口 |③---|
口口口① |④---|
18
口口口口 |①---|
口口口口 |②---|
口④口口 |③---|
③②①口 |④---|
19
口口口② |①---|
口口①③ |②---|
口口口④ |③---|
口口口口 |④---|
20
口口口口 |①---|
口④口口 |②---|
口口③口 |③---|
口口①② |④---|
21
①口口口 |①---|
②口口口 |②---|
③口口口 |③---|
④口口口 |④---|
22
口④④口 |①---|
口③③口 |②---|
口②②口 |③---|
口①①口 |④---|
23
①口口① |①---|
②口口② |②---|
③口口③ |③---|
④口口④ |④---|
24
①①口口 |①---|
口口②② |②---|
③③口口 |③---|
口口④④ |④---|
25
口口①① |①---|
②②口口 |②---|
口口③③ |③---|
④④口口 |④---|
26
口①①口 |①---|
②口口② |②---|
口③③口 |③---|
④口口④ |④---|
27
④口口④ |①---|
口③③口 |②---|
②口口② |③---|
口①①口 |④---|
28
口口①口 |①---|
口口口② |②---|
口口③口 |③---|
口口口④ |④---|
29
口①口口 |①---|
②口口口 |②---|
口③口口 |③---|
④口口口 |④---|
30
②口口① |①---|
④②①③ |②---|
口④③口 |③---|
口口口口 |④---|
31
口口口口 |①---|
口口口口 |②---|
①④④① |----|
②③③② |③-④-|
32
口②②口 |①---|
口①①口 |--②-|
口口口口 |----|
口口口口 |----|
33
口口口口 |①---|
①口口① |----|
②口口② |②---|
口口口口 |----|
34
口口口口 |①---|
①③③① |--②-|
口②②口 |----|
口口口口 |③---|
35
①口口① |①---|
口口口口 |----|
口口口口 |----|
口口口口 |----|
36
口③④口 |①---|
②口口口 |②---|
①口口口 |③---|
口口口口 |④---|
37
口口口口 |①---|
口口口① |②---|
口口口② |----|
口口口口 |----|
38
口②②口 |①---|
①口口③ |--②-|
①口口③ |----|
口口口口 |③---|
39
口口口口 |----|
①②③④ |----|
口口口口 |①-②-|
口口口口 |③-④-|
40
口口口口 |----|
口口口口 |--①-|
口②①口 |-②--|
口口口口 |----|
41
口口口口 |①---|
口口口口 |----|
口②口口 |②---|
口口①口 |----|
42
口②口口 |①---|
口口①口 |----|
口口口口 |②---|
口口口口 |----|
43
①口口① |①---|
口口口口 |----|
②口口② |②---|
口口口口 |----|
44
①①①① |①---|
②②②② |----|
口口口口 |②---|
口口口口 |----|
45
①①①① |①---|
②②②② |----|
③③③③ |②-③-|
④④④④ |④---|
46
①①①① |①---|
口口口口 |----|
口口口口 |----|
口口口口 |----|
47
口口口口 |①---|
口口口口 |----|
①①①① |②---|
②②②② |----|
48
②①口口 |①-②-|
④③口口 |③-④-|
⑥⑤口口 |⑤-⑥-|
⑧⑦口口 |⑦-⑧-|
49
口口②① |①-②-|
口口④③ |③-④-|
口口⑥⑤ |⑤-⑥-|
口口⑧⑦ |⑦-⑧-|
50
①口口① |①---|
②口口② |②---|
③口口③ |③---|
口④④口 |④---|
51
①②②① |①---|
口④③口 |②---|
口⑥⑤口 |③-④-|
口口口口 |⑤-⑥-|
52
口口口① |----|
口口口② |----|
②口口口 |①---|
①口口口 |②---|
53
②③④口 |①---|
①口口口 |②---|
口口口① |③---|
口④③② |④---|
54
口口④③ |①---|
口②②口 |②---|
口①①口 |③---|
③④口口 |④---|
55
②①口口 |①---|
③口口④ |②---|
④口口③ |③---|
口口①② |④---|
56
口①①⑤ |①---|
口口④口 |----|
口③口口 |②-③-|
②口口口 |④-⑤-|
57
④口口口 |①-②-|
口③口口 |③-④-|
口口②口 |----|
口口口① |----|
58
③口口② |①---|
口④①口 |②---|
口①④口 |-③--|
②口口③ |④---|
59
④③③④ |①---|
②口口② |②---|
①口口① |③---|
口口口口 |④---|
60
口口口口 |①---|
④①①④ |②---|
③②②③ |③---|
口口口口 |④---|
61
①③④② |①---|
口口口口 |②---|
口口口口 |③---|
口口口口 |④---|
62
③④口口 |①---|
②①①口 |②---|
口口口口 |③---|
口口口口 |④---|
63
口口①② |①---|
口口口③ |②---|
口④④口 |③---|
口口口口 |④---|
64
③②②③ |①---|
④①①④ |②---|
口口口口 |③---|
口口口口 |④---|
65
口口口口 |①---|
口口口口 |②---|
①④④① |③---|
②③③② |④---|
66
口口口口 |①---|
①①①① |----|
口口口口 |②---|
②②②② |----|

BPM: 172
67
①①②② |①---|
①①②② |----|
口口口口 |②---|
口口口口 |----|
68
口口口口 |①---|
口口口口 |----|
口①①口 |----|
口①①口 |----|


不确定度: 0

最終更新:2012年11月27日 00:32