逆ナンされたのにドタキャン!!
good-cool ft. すわひでお

EXTREME

Level: 9
BPM: 194
Notes: 757

1
口口口口 |----|
口口口口 |----|
口口口口 |----|
口口口口 |----|
2
①口口① |①-②③|
口②③④ |④-⑤-|
⑤⑨⑦口 |⑥-⑦-|
⑧口口⑥ |⑧-⑨-|
3
口口口口 |--①②|
口①②③ |③-④-|
④⑧⑥⑧ |⑤-⑥-|
⑦口⑧⑤ |⑦-⑧-|
4
①口口② |--①-|
⑦③④⑤ |②-③④|
口⑧⑥口 |⑤-⑥-|
口口口口 |⑦-⑧-|
5
口⑦⑦口 |①-②-|
⑥口口⑥ |③-④-|
③口口① |⑤-⑥-|
⑤④②⑤ |--⑦-|
6
①口口② |--①-|
⑦③④⑤ |②-③④|
口⑧⑥口 |⑤-⑥-|
口口口口 |⑦-⑧-|
7
⑧口口⑥ |①-②-|
口口口口 |③-④-|
③口口① |⑤-⑥-|
⑦④②⑤ |⑦-⑧-|
8
口口口口 |--①-|
⑦③④⑤ |②-③④|
①⑧⑥② |⑤-⑥-|
口口口口 |⑦-⑧-|
9
④⑦⑦② |①-②-|
口口口口 |③-④-|
⑤口口⑤ |⑤-⑥-|
③⑥⑥① |--⑦-|
10
口口口口 |--①-|
⑦③④⑤ |②-③④|
口⑧⑥口 |⑤-⑥-|
①口口② |⑦-⑧-|
11
口⑤⑤口 |①-②-|
口口口口 |③-④-|
③口口① |⑤---|
口④②口 |----|
12
口④口口 |①---|
②⑤③② |②---|
口⑥口口 |③-④-|
①口口① |⑤-⑥-|
13
口口口⑥ |①-②③|
②口口口 |④-⑤-|
③口口口 |----|
口①④⑤ |⑥---|
14
口口口口 |①---|
①口口① |②---|
③④⑤口 |--③-|
②口口② |④-⑤-|
15
⑥⑦口⑤ |①-②③|
口口口④ |④-⑤-|
口口口① |--⑥-|
②③口口 |⑦---|
16
口口⑤④ |①---|
①⑥口② |②---|
口口③口 |③-④-|
①口口② |⑤-⑥-|
17
②③口口 |①-②③|
口口口口 |④-⑤-|
口①口口 |--⑥-|
⑥口⑤④ |----|
18
口口口⑦ |①-②-|
①②③④ |③-④-|
⑥口口⑤ |--⑤-|
口口口口 |⑥-⑦-|
19
口口⑥口 |--①②|
④口⑤口 |③-④-|
口口口口 |--⑤-|
口①②③ |⑥---|
20
口④口口 |①---|
②⑤③① |②---|
口⑥口口 |③-④-|
①口口② |⑤-⑥-|
21
口口⑦口 |①-②③|
②口口⑥ |④-⑤-|
③口口⑤ |--⑥⑦|
口①④口 |----|
22
②口口② |①---|
口④口口 |②---|
③口⑤口 |③-④-|
①口⑥① |⑤-⑥-|
23
⑤⑦⑥④ |①-②③|
②口口① |④-⑤-|
口③口口 |--⑥-|
口口口口 |⑦---|
24
口口口口 |①---|
④⑤⑥口 |②---|
②③口② |③-④-|
①口口① |⑤-⑥-|
25
口口口口 |①-②③|
口口口口 |④-⑤-|
⑥口①⑤ |--⑥-|
④③②口 |----|
26
⑦④③⑦ |①-②-|
④口口③ |③-④-|
⑥②①⑤ |--⑤-|
②⑥⑤① |⑥-⑦-|
27
口④口口 |--①-|
③②②口 |--②-|
口口口口 |----|
①口口① |③-④-|
28
口口口③ |①---|
口⑤③② |②---|
④⑤②① |③-④-|
口⑤①口 |--⑤-|
29
②③④口 |----|
口口口① |①---|
口口口① |--②-|
口口口① |③-④-|
30
口口口① |①---|
口口④口 |②-③-|
口③③③ |--④-|
②口⑤口 |⑤---|
31
口④口口 |①---|
③①口② |②---|
口口口口 |----|
口①口② |③-④-|
32
口口口口 |①---|
口口口② |②---|
口口②①
口口①口

口口口③
口口③口
④口口口 |③-④-|
口⑤⑤口 |--⑤-|
33
口①①口 |----|
②③④口 |①---|
口口口口 |--②-|
口口口口 |③-④-|
34
口口口口 |①---|
口口口① |②-③-|
⑤口③② |--④-|
④口口口 |⑤---|
35
③口③口 |①---|
口③①② |②---|
③①③口 |--③-|
口口①② |----|
36
④⑤⑥口 |①---|
口口③口 |②-③-|
口口口② |--④-|
口①①口 |⑤-⑥-|
37
口口口① |①-②-|
口③口④ |--③-|
③口④口 |--④-|
口②②口 |----|
38
口①①口 |①---|
④口口口 |②-③-|
③⑤⑥② |--④-|
③口口② |⑤-⑥-|
39
②口口③ |①---|
口口口① |②-③-|
②口口③ |----|
口口口口 |----|
40
④口口口 |①---|
②①②① |②---|
③②①⑤ |--③-|
②①②① |④-⑤-|
41
口口口① |①-②-|
口③④口 |--③-|
口⑤口口 |--④-|
③②②④ |--⑤-|
42
③④⑤⑥ |①-②-|
②口口⑦ |③-④-|
①口口⑧ |⑤-⑥-|
口口口口 |⑦-⑧-|
43
④口口④ |①---|
口②③口 |②-③-|
口口口口 |--④-|
口①①口 |----|
44
口口口口 |①---|
口⑤⑥③ |②-③-|
①④口口 |--④-|
口口口② |⑤-⑥-|
45
④口口④ |①-②-|
口口口口 |--③-|
口口①口 |--④-|
③口②③ |----|
46
口①①口 |①---|
口⑥⑤④ |②-③-|
②③口口 |--④-|
口口口口 |⑤-⑥-|
47
口①①口 |①---|
口口口口 |②-③-|
口口口口 |----|
②口口③ |----|
48
②口口② |①---|
①④⑤① |②---|
③②②口 |--③-|
口①①口 |④-⑤-|
49
④口口④ |①-②-|
③口口③ |--③-|
口④④① |--④-|
口③③② |----|
50
口④④口 |①-②-|
口③③口 |--③-|
②口⑥② |④---|
①⑤口① |⑤-⑥-|
51
①④⑤② |--①-|
④⑤④⑤ |②-③-|
④④⑤口 |④---|
④⑤口③ |⑤---|
52
口口口口 |----|
口口口口 |----|
口口口口 |----|
口口口口 |----|
53
口⑤口⑦ |①-②-|
⑧②⑥⑧ |③-④-|
①⑧⑧④ |⑤-⑥-|
⑧口③⑧ |⑦-⑧-|
54
口口口⑦ |--①-|
口①⑥口 |②-③-|
②口口⑤ |④-⑤-|
口③④口 |⑥-⑦-|
55
①②④口 |①-②-|
⑥③⑤⑥ |③-④-|
口⑥⑥口 |----|
⑥口口⑥ |⑤-⑥-|
56
⑦口口口 |--①-|
口②⑥口 |②-③-|
①口口④ |④-⑤-|
口⑤③口 |⑥-⑦-|
57
口⑦④① |①-②-|
⑧③口⑧ |③-④-|
②⑧⑧⑥ |⑤-⑥-|
⑧口⑤⑧ |⑦-⑧-|
58
⑤⑥⑦口 |--①-|
口②口口 |②-③-|
①口口④ |④-⑤-|
口口③口 |⑥-⑦-|
59
口口口① |①-②-|
⑤④③⑤ |③-④-|
口⑤⑤口 |⑤---|
⑤②口⑤ |----|
60
①口口④ |①-②-|
口⑤⑧口 |③-④-|
③口口② |⑤-⑥-|
口⑦⑥口 |⑦-⑧-|
61
口口口口 |①-②-|
①口口④ |③-④-|
③口口② |----|
口口口口 |----|
62
⑤口口⑥ |----|
口②③④ |①-②③|
⑦口口口 |④-⑤-|
口①①口 |⑥-⑦-|
63
口口口口 |①-②-|
口口口口 |③-④-|
口②③① |⑤---|
④口口⑤ |----|
64
口①④口 |----|
口②⑤口 |①-②-③-|
口③⑥口 |④-⑤-⑥-|
口口⑦口 |⑦---|
65
④口口① |----|
⑤口口② |①-②-③-|
⑥口口③ |④-⑤-⑥-|
⑦口口口 |⑦---|
66
口口口口 |----|
口①①口 |①---|
口①①口 |----|
②口口② |②---|
67
③口口③ |①---|
①口口① |--②-|
②口口② |----|
口口口口 |③---|
68
口⑫⑪⑩ |①-②-③-|
①②③口 |④-⑤-⑥-|
口⑥⑤④ |⑦-⑧-⑨-|
⑦⑧⑨口 |⑩-⑪-⑫-|
69
口⑫⑪⑩ |①-②-③-|
①②③口 |④-⑤-⑥-|
口⑥⑤④ |⑦-⑧-⑨-|
⑦⑧⑨口 |⑩-⑪-⑫-|
70
口⑫⑪⑩ |①-②-③-|
①②③口 |④-⑤-⑥-|
口⑥⑤④ |⑦-⑧-⑨-|
⑦⑧⑨口 |⑩-⑪-⑫-|
71
口⑫⑪⑩ |①-②-③-|
①②③口 |④-⑤-⑥-|
口⑥⑤④ |⑦-⑧-⑨-|
⑦⑧⑨口 |⑩-⑪-⑫-|
72
口口口口 |①---|
口口口① |----|
口口口口 |----|
口口口① |----|
73
⑧口口⑦ |①②③④|
口⑥⑤口 |⑤⑥-⑦|
口④③口 |⑧---|
口②①口 |----|
74
⑧口口⑦ |----|
①②③口 |①-②-③-|
口⑥⑤④ |④-⑤-⑥-|
口口口口 |⑦-⑧-|
75
口口口口 |①-②-|
④⑧⑦③ |③-④-|
⑥口口⑤ |⑤-⑥-|
②口口① |⑦-⑧-|
76
口①①口 |①---|
口口口口 |----|
口①①口 |----|
口口口口 |----|
77
③口口③ |----|
口①②口 |----|
口口口口 |--①②|
口口口口 |③---|
78
口口口口 |①-②-|
⑦⑧⑨口 |③-④-|
②⑤⑥④ |⑤-⑥-|
①口口③ |⑦-⑧-⑨-|
79
口口口② |①-②-|
口口口① |③-④-|
④⑦⑧⑥ |⑤-⑥-|
③口口⑤ |⑦-⑧-|
80
口口口⑤ |①-②-③-|
①②③④ |④-⑤-|
⑦口口⑨ |⑥-⑦-|
⑥口口⑧ |⑧-⑨-|
81
口口口⑦ |①-②-|
③④⑤⑥ |③-④-⑤-|
⑨①②口 |⑥-⑦-|
⑧口口口 |⑧-⑨-|
82
⑥口口⑥ |①-②-|
⑤口口⑤ |③-④-|
口③④② |⑤---|
口口口① |⑥---|
83
口口口口 |①-②-|
⑦⑧⑨口 |③-④-|
②⑤⑥④ |⑤-⑥-|
①口口③ |⑦-⑧-⑨-|
84
口口口② |①-②-|
口口口① |③-④-|
④⑦⑧⑥ |⑤-⑥-|
③口口⑤ |⑦-⑧-|
85
口口口⑤ |①-②-③-|
①②③④ |④-⑤-|
⑦口口⑨ |⑥-⑦-|
⑥口口⑧ |⑧-⑨-|
86
口口口⑦ |①-②-|
③④⑤⑥ |③-④-⑤-|
⑨①②口 |⑥-⑦-|
⑧口口口 |⑧-⑨-|
87
⑤⑥⑦⑧ |①-②-|
⑫⑪⑩⑨ |③-④-|
口③④② |⑤⑥⑦⑧|
口口口① |⑨⑩⑪⑫|
88
④③③④ |①---|
口口口口 |②---|
①②②① |③---|
①②②① |④---|
89
口④④口 |①---|
②①①② |②---|
①④④① |③---|
②③③② |④---|
90
①口口① |①---|
口②②口 |②---|
①口口① |③---|
③④④③ |④---|
91
口①①口 |①-②③|
⑤②③④ |④-⑤-|
⑦①①⑥ |⑥-⑦-|
⑨口口⑧ |⑧-⑨-|
92
口口口口 |--①②|
④①②③ |③-④-|
⑥口口⑤ |⑤-⑥-|
⑧口⑧⑦ |⑦-⑧-|
93
①⑤口口 |----|
口②⑥口 |①②③④|
口口③⑦ |⑤⑥⑦⑧|
口④⑨⑧ |⑨---|
94
口口①口 |①---|
①口口① |----|
①①口口 |----|
①口口口 |----|


不确定度: 0

最終更新:2012年11月06日 22:59