冒険者たち
Do As Infinity

BASIC

Level: 2
BPM: 176
Notes: 181

1
口口口口 |----|
口口口口 |----|
口口口口 |----|
口口口口 |----|
2
口口口口 |①---|
口口①口 |----|
口口口口 |----|
口口口口 |----|
3
口口口口 |①---|
口口口口 |----|
口①口口 |----|
口口口口 |----|
4
口口口口 |①---|
口①口口 |----|
口①口口 |----|
口口口口 |----|
5
口口口口 |①---|
口口①口 |----|
口口①口 |----|
口口口口 |----|
6
口口口口 |①---|
口口口口 |----|
口口口口 |----|
口①口口 |----|
7
口口口口 |①---|
口口口口 |----|
口口口口 |----|
口口①口 |----|
8
口口口口 |①---|
口口口口 |----|
①口口口 |----|
口口口口 |----|
9
口口口口 |①---|
口口口口 |----|
口口口① |----|
口口口口 |----|
10
口口口口 |①---|
口②②口 |----|
口①①口 |②---|
口口口口 |----|
11
口口口口 |----|
口口口口 |----|
口口口口 |----|
口口口口 |----|
12
口口口口 |①---|
口口口① |----|
口口口② |②---|
口口口口 |----|
13
口口口口 |----|
口口口口 |----|
口口口口 |----|
口口口口 |----|
14
口口口口 |①---|
口口①口 |----|
口②口口 |②---|
口口口口 |----|
15
口口口口 |----|
口口口口 |----|
口口口口 |----|
口口口口 |----|
16
口口口口 |①---|
①口口口 |----|
②口口口 |②---|
口口口口 |----|
17
口口口口 |----|
口口口口 |----|
口口口口 |----|
口口口口 |----|
18
口口口口 |①---|
①②③口 |----|
口口口口 |②---|
口口口口 |③---|
19
口口口口 |----|
口口口口 |----|
口口口口 |----|
口口口口 |----|
20
口口口口 |①---|
口口口口 |----|
口③②① |②---|
口口口口 |③---|
21
口口口口 |----|
口口口口 |----|
口口口口 |----|
口口口口 |----|
22
口口口口 |①---|
口口③口 |----|
口口②口 |②---|
口口①口 |③---|
23
口口口口 |----|
口口口口 |----|
口口口口 |----|
口口口口 |----|
24
口①口口 |①---|
口②口口 |----|
口口口口 |②---|
口口口口 |----|
25
口口口口 |----|
口口口口 |----|
口口口口 |----|
口口口口 |----|
26
口口口口 |①---|
口口口口 |----|
口③②① |②---|
口口口口 |③---|
27
口口口口 |----|
口口口口 |----|
口口口口 |----|
口口口口 |----|
28
口口口口 |①---|
①②③口 |----|
口口口口 |②---|
口口口口 |③---|
29
口口口口 |----|
口口口口 |----|
口口口口 |----|
口口口口 |----|
30
口①口口 |①---|
口②口口 |----|
口③口口 |②---|
口口口口 |③---|
31
口口口口 |----|
口口口口 |----|
口口口口 |----|
口口口口 |----|
32
口口口口 |①---|
口口口口 |----|
口口②口 |②---|
口口①口 |----|
33
口口口口 |----|
口口口口 |----|
口口口口 |----|
口口口口 |----|
34
口口口口 |①---|
①口口口 |----|
①口口口 |----|
口口口口 |----|
35
口口口口 |①---|
口口口口 |----|
口①①口 |----|
口口口口 |----|
36
口口口口 |①---|
口口口① |----|
口口口① |----|
口口口口 |----|
37
口口①① |①---|
口口口口 |----|
口口口口 |----|
口口口口 |----|
38
①①口口 |①---|
口口口口 |----|
口口口口 |----|
口口口口 |----|
39
口口口口 |①---|
①口口口 |----|
①口口口 |----|
口口口口 |----|
40
口口口口 |①---|
口口口口 |----|
口①①口 |----|
口口口口 |----|
41
口口口口 |①---|
口口口口 |----|
口口口① |----|
口口口① |----|
42
口口口口 |①---|
口口③口 |----|
口②口口 |②---|
口口①口 |③---|
43
口①口口 |①---|
口口口口 |----|
口口口口 |----|
口口口口 |----|
44
①①①① |①---|
口②②口 |----|
口口口口 |②---|
口口口口 |----|
45
口①②口 |----|
口口口口 |①---|
口口口口 |②---|
口口口口 |----|
46
口口口口 |①---|
①①①① |----|
口②②口 |②---|
口口口口 |----|
47
口口口口 |----|
口①②口 |①---|
口口口口 |②---|
口口口口 |----|
48
口口口口 |①---|
口口口口 |----|
①①①① |②---|
口②②口 |----|
49
口口口口 |----|
口口口口 |①---|
①②③口 |②---|
口口口口 |③---|
50
口口口口 |①---|
口②②口 |----|
口口口① |----|
口口口口 |--②-|
51
口口口口 |----|
口口口口 |----|
口口口口 |----|
口口口口 |----|
52
口口口口 |①---|
口口口口 |----|
口②②口 |②---|
①①①① |----|
53
口口口口 |----|
口口口口 |①---|
口口口口 |②---|
口①②口 |----|
54
口口口口 |①---|
口②②口 |----|
①①①① |②---|
口口口口 |----|
55
口口口口 |----|
口口口口 |①---|
口①②口 |②---|
口口口口 |----|
56
②口口口 |①---|
①①①① |----|
口口口口 |----|
口口口口 |②---|
57
口①②③ |①---|
口口口口 |②---|
口口口口 |③---|
口口口口 |----|
58
口口口口 |①---|
口①①口 |----|
口口口口 |----|
口口口口 |----|
59
口口口口 |----|
口口口口 |----|
口口口口 |----|
口口口口 |----|
60
口口口口 |①---|
①①口口 |----|
口口②② |②---|
口口口口 |----|
61
口口口口 |----|
口口②口 |①---|
口①口口 |②---|
口口口口 |----|
62
口口口口 |①---|
②②口口 |----|
口口①① |②---|
口口口口 |----|
63
口口口口 |----|
口口①口 |①---|
口②口口 |②---|
口口口口 |----|
64
口口口口 |①---|
口①口② |----|
②口①口 |②---|
口口口口 |----|
65
口口口口 |----|
口口口③ |①---|
口口口② |②---|
口口口① |③---|
66
口②②① |①---|
口口口口 |----|
口口口口 |----|
口口口口 |--②-|
67
口口口口 |----|
口口口口 |----|
口口口口 |----|
口口口口 |----|
68
口口口口 |①---|
①①①① |----|
口②②口 |②---|
口口口口 |----|
69
口口口口 |----|
口口①口 |①---|
口②口口 |②---|
口口口口 |----|
70
口口口口 |①---|
①①②② |----|
②②①① |②---|
口口口口 |----|
71
口口口口 |----|
口②口口 |①---|
口口①口 |②---|
口口口口 |----|
72
①口口口 |①---|
②口口口 |②---|
③口口口 |③---|
④口口口 |④---|
73
口口口口 |①---|
口口口口 |②---|
口口口④ |③---|
口①②③ |④---|
74
口口口口 |①---|
口口口① |----|
口口口口 |----|
口口口口 |----|
75
口口①口 |①---|
口②口口 |②---|
口口③口 |③---|
口④口口 |④---|
76
口口口口 |①---|
口口口口 |----|
口②口口 |②---|
口口①口 |----|
77
口口口口 |----|
口口口口 |----|
口口口口 |----|
口口口口 |----|
78
口口口口 |①---|
口口②口 |----|
口口①口 |②---|
口口口口 |----|
79
口口口口 |----|
口口口口 |----|
口口口口 |----|
口口口口 |----|
80
口②口口 |①---|
口①口口 |----|
口口口口 |②---|
口口口口 |----|
81
口口口口 |----|
口口口口 |----|
口口口口 |----|
口口口口 |----|
82
口口口口 |①---|
口①口口 |----|
口口②口 |②---|
口口口口 |----|
83
口口口口 |----|
口口口口 |----|
口口口口 |----|
口口口口 |----|
84
口①口口 |①---|
口①口口 |----|
口口②口 |②---|
口口②口 |----|


不确定度: 0

最終更新:2012年11月27日 00:32