冒険者たち
Do As Infinity

ADVANCED

Level: 4
BPM: 176
Notes: 309

1
口口口口 |----|
口口口口 |----|
口口口口 |----|
口口口口 |----|
2
口口口口 |①---|
口口口口 |----|
口口口口 |----|
口口口① |----|
3
口口口口 |①---|
口口①口 |----|
口口①口 |----|
口口口口 |----|
4
①口口口 |①---|
口口口口 |----|
口口口口 |----|
口口口口 |----|
5
口口口口 |①---|
口①口口 |----|
口①口口 |----|
口口口口 |----|
6
口口口① |①---|
口口口口 |----|
口口口口 |----|
口口口口 |----|
7
口口口口 |①---|
口口①口 |----|
口口①口 |----|
口口口口 |----|
8
口口口口 |①---|
口口口口 |----|
口口口口 |----|
①口口口 |----|
9
口口口口 |①---|
口①口口 |----|
口①口口 |----|
口口口口 |----|
10
口①口② |①---|
口口口口 |----|
口口口口 |②---|
口口口口 |----|
11
口口①口 |①---|
口口②口 |----|
口口③口 |②---|
口口口口 |③---|
12
口口口口 |①---|
口口口口 |----|
口口口口 |②---|
①口②口 |----|
13
口口口口 |①---|
口③口口 |----|
口②口口 |②---|
口①口口 |③---|
14
口口口① |①---|
口口口口 |----|
口口口② |②---|
口口口口 |----|
15
口口口口 |①---|
口③②① |----|
口口口口 |②---|
口口口口 |③---|
16
口口口口 |①---|
②口口口 |----|
口口口口 |②---|
①口口口 |----|
17
口口口口 |①---|
口口口口 |----|
①②③口 |②---|
口口口口 |③---|
18
①①口口 |①---|
口③②② |----|
口口口口 |②---|
口口口口 |③---|
19
口口口口 |①---|
①口口口 |----|
②③口口 |②----③|
口口口口 |----|
20
口口口口 |①---|
口口口口 |----|
口口①① |②---|
②②③口 |③---|
21
口口口口 |①---|
口口口口 |----|
③口口口 |②---|
②口口① |③---|
22
①口口口 |①---|
①③口口 |----|
口②口口 |②---|
口②口口 |③---|
23
口①②口 |①---|
口口③口 |----|
口口口口 |②---|
口口口口 |③---|
24
口口口② |①---|
口口口② |----|
口口①口 |②---|
口口①口 |----|
25
口口口口 |----|
口口口口 |----|
口口口口 |----|
口口口口 |----|
26
②①口口 |①---|
①③口口 |----|
口口口口 |②---|
口口口口 |③---|
27
口口口口 |①---|
口口口口 |----|
②①口口 |②---|
口③口口 |③---|
28
口口口口 |①---|
口口口口 |----|
口口③① |②---|
口口①② |③---|
29
口口③口 |①---|
口口①② |----|
口口口口 |②---|
口口口口 |③---|
30
②①口口 |①---|
①③口口 |----|
口口口口 |②---|
口口口口 |③---|
31
口口口口 |①---|
口口口口 |----|
②①口口 |②---|
口③口口 |③---|
32
口口①② |①---|
口口③① |----|
口口口口 |②---|
口口口口 |③---|
33
口口口口 |①---|
口口口口 |----|
②口①③ |②---|
口口口口 |③---|
34
口口口口 |①---|
口口口口 |----|
口口口口 |②---|
②①①③ |③---|
35
口口口口 |①---|
口口口口 |----|
③①①② |②---|
口口口口 |③---|
36
口口口口 |①---|
②①①③ |----|
口口口口 |②---|
口口口口 |③---|
37
③①①② |①---|
口口口口 |----|
口口口口 |②---|
口口口口 |③---|
38
口口口② |①---|
口口口① |----|
口口口① |②---|
口口口③ |③---|
39
口口③口 |①---|
口口①口 |----|
口口①口 |②---|
口口②口 |③---|
40
口②口口 |①---|
口①口口 |----|
口①口口 |②---|
口③口口 |③---|
41
③口口口 |①---|
①口口口 |----|
①口口口 |②---|
②口口口 |③---|
42
口口口口 |①---|
口①口口 |②---|
口口②口 |③---|
口口④③ |④---|
43
口口口口 |①---|
口口口口 |----|
口口口口 |----|
口①口口 |----|
44
口口口口 |①---|
②②②② |----|
①①①① |②---|
口口口口 |----|
45
①②③口 |----|
口口口口 |①---|
口口口口 |②---|
口口口口 |③---|
46
口口口口 |①---|
①①①① |----|
②②②② |②---|
口口口口 |----|
47
口口口口 |----|
口口口口 |①---|
口口口口 |②---|
口③②① |③---|
48
口口口口 |①---|
②②②② |----|
①①①① |②---|
口口口口 |----|
49
①②③口 |----|
口口口口 |①---|
口口口口 |②---|
口口口口 |③---|
50
口口口① |①---|
②口口② |----|
②口口② |----|
口口口口 |--②-|
51
口口口口 |----|
口口口口 |----|
口口口口 |----|
口口口口 |----|
52
①①①① |①---|
口口口口 |----|
口口口口 |②---|
②②②② |----|
53
口口口口 |----|
口①口③ |①---|
口口②口 |②---|
口口口口 |③---|
54
①①①① |①---|
口口口口 |----|
口口口口 |②---|
②②②② |----|
55
口口口口 |----|
③口①口 |①---|
口②口口 |②---|
口口口口 |③---|
56
口口口口 |①---|
口②口④ |②---|
①口③口 |③---|
口口口口 |④---|
57
口①①口 |①---|
口②②口 |②---|
口③③口 |③---|
口④④口 |④---|
58
④口口口 |①---|
口口口③ |②---|
②口口口 |③---|
口口口① |④---|
59
口口口① |①---|
②口口口 |②---|
口口口③ |③---|
④口口口 |④---|
60
口②①口 |①---|
口②①口 |----|
口②①口 |②---|
口②①口 |----|
61
①口口口 |----|
②口口口 |①---|
③口口口 |②---|
口口口口 |③---|
62
口①②口 |①---|
口①②口 |----|
口①②口 |②---|
口①②口 |----|
63
口口口口 |----|
口口口③ |①---|
口口口② |②---|
口口口① |③---|
64
口②①口 |①---|
口②①口 |----|
口②①口 |②---|
口②①口 |----|
65
①口口口 |----|
②口口口 |①---|
③口口口 |②---|
口口口口 |③---|
66
口②②口 |①---|
口口口口 |----|
口口口口 |----|
①②②口 |--②-|
67
口口口口 |----|
口口口口 |----|
口口口口 |----|
口口口口 |----|
68
①口口② |①---|
①口口② |----|
①口口② |②---|
①口口② |----|
69
口口口口 |----|
口①口口 |①---|
口口②口 |②---|
口③口口 |③---|
70
①口口② |①---|
①口口② |----|
①口口② |②---|
①口口② |----|
71
口③口口 |----|
口口②口 |①---|
口①口口 |②---|
口口口口 |③---|
72
口口①口 |①---|
口②口口 |②---|
口口③口 |③---|
口④口口 |④---|
73
口口口口 |①---|
①②③④ |②---|
①②③④ |③---|
口口口口 |④---|
74
口③口① |①---|
口口口口 |②---|
口口口口 |③---|
④口②口 |④---|
75
①口③口 |①---|
口口口口 |②---|
口口口口 |③---|
口②口④ |④---|
76
口①口② |①---|
口口口口 |----|
口口口口 |②---|
口口口口 |----|
77
口口①口 |①---|
口口②口 |----|
口口③口 |②---|
口口口口 |③---|
78
口口口口 |①---|
口口口口 |----|
口口口口 |②---|
①口②口 |----|
79
口口口口 |①---|
口③口口 |----|
口②口口 |②---|
口①口口 |③---|
80
口口口① |①---|
口口口口 |----|
口口口② |②---|
口口口口 |----|
81
口口口口 |①---|
口③②① |----|
口口口口 |②---|
口口口口 |③---|
82
口口口口 |①---|
②口口口 |----|
口口口口 |②---|
①口口口 |----|
83
口口口口 |①---|
口口口口 |----|
①②③口 |②---|
口口口口 |③---|
84
口①②口 |①---|
口①②口 |----|
口口口口 |②---|
口口口口 |----|


不确定度: 0

最終更新:2012年11月27日 00:32