冒険者たち
Do As Infinity

EXTREME

Level: 6
BPM: 176
Notes: 493

1
口口口口 |----|
口口口口 |----|
口口口口 |----|
口口口口 |----|
2
口口④⑤ |①---|
口口口③ |--②-|
口口②① |--③-|
口口①口 |④-⑤-|
3
⑤④口口 |①---|
③口口口 |--②-|
①②口口 |--③-|
口①口口 |④-⑤-|
4
口口①口 |①---|
口口②① |--②-|
口口口③ |--③-|
口口④⑤ |④-⑤-|
5
口①口口 |①---|
①②口口 |--②-|
③口口口 |--③-|
⑤④口口 |④-⑤-|
6
口①①口 |①---|
①口②① |--②-|
口③口口 |--③-|
口⑤④口 |④-⑤-|
7
①口口口 |①---|
②①口口 |--②-|
口③口口 |--③-|
④⑤口口 |④-⑤-|
8
口口口① |①---|
口口①② |--②-|
口口③口 |--③-|
口口⑤④ |④-⑤-|
9
①口口① |①---|
口①①口 |--②-|
②③③② |--③-|
④⑤⑤④ |④-⑤-|
10
①②②① |①---|
①②②① |--②-|
口口口口 |----|
口口口口 |----|
11
口④⑤口 |①---|
口口③口 |--②-|
口②口口 |--③-|
口口①口 |④-⑤-|
12
②口口② |①---|
②口口② |--②-|
①口口① |----|
①口口① |----|
13
口①口口 |①---|
口口②口 |--②-|
口③口口 |--③-|
口⑤④口 |④-⑤-|
14
②口口② |①---|
②口口② |--②-|
①口口① |----|
①口口① |----|
15
口⑤④口 |①---|
口③口口 |--②-|
口口②口 |--③-|
口①口口 |④-⑤-|
16
①口口① |①---|
①口口① |--②-|
②口口② |----|
②口口② |----|
17
口口①口 |①---|
口②口口 |--②-|
口口③口 |--③-|
口④⑤口 |④-⑤-|
18
口①②③ |①---|
口口口④ |②-③-|
口口口⑤ |--④-|
口口口口 |⑤---|
19
口口口口 |----|
口②③口 |①-②-|
口④①口 |③---|
口口口口 |④---|
20
口口口口 |①---|
⑤口口口 |②-③-|
④口口口 |--④-|
③②①口 |⑤---|
21
口口口口 |----|
口①④口 |①-②-|
口③②口 |③---|
口口口口 |④---|
22
口口口口 |①---|
口口口① |②-③-|
口口口② |--④-|
口⑤④③ |⑤---|
23
口口口口 |----|
口②③口 |①-②-|
口④①口 |③---|
口口口口 |④---|
24
③口口口 |①---|
②口口口 |②-③-|
①口口口 |----|
口口口口 |----|
25
口①口口 |①---|
口口②口 |②-③-|
口③口口 |--④-|
口⑤④口 |⑤---|
26
③②①口 |①---|
④口口口 |②-③-|
⑤口口口 |--④-|
口口口口 |⑤---|
27
口口口口 |----|
口④②口 |①-②-|
口①③口 |③---|
口口口口 |④---|
28
口①②③ |①---|
口口口④ |②-③-|
口口口⑤ |--④-|
口口口口 |⑤---|
29
口口口口 |----|
口②③口 |①-②-|
口④①口 |③---|
口口口口 |④---|
30
③④⑤口 |①---|
②口口口 |②-③-|
①口口口 |--④-|
口口口口 |⑤---|
31
口口口口 |----|
口①④口 |①-②-|
口③②口 |③---|
口口口口 |④---|
32
口口口口 |①---|
口口口① |②-③-|
口口口② |----|
口口口③ |----|
33
口①口口 |----|
口口②口 |----|
口口口③ |①-②-|
口口口③ |--③-|
34
③口口口 |----|
③口口口 |----|
口②口口 |①-②-|
口口①口 |--③-|
35
口口口① |----|
口口②口 |----|
口③口口 |①-②-|
口③口口 |--③-|
36
①口口口 |----|
口②口口 |----|
口口③口 |①-②-|
口口③口 |--③-|
37
口口①口 |----|
口口②口 |----|
口③口口 |①-②-|
③口口口 |--③-|
38
口①口口 |----|
口②口口 |----|
口口③口 |①-②-|
口口口③ |--③-|
39
③口口③ |----|
②口口② |----|
①口口① |①---|
口口口口 |②-③-|
40
口①①口 |----|
口②②口 |----|
口③③口 |①---|
口口口口 |②-③-|
41
口口口口 |----|
口③③口 |----|
口②②口 |①---|
口①①口 |②-③-|
42
口口口口 |----|
①口口① |----|
②口口② |①---|
口口口口 |②---|
43
口口口口 |①---|
口口口口 |----|
口口口口 |----|
①口口① |----|
44
口口口口 |①---|
②②②② |----|
①①①① |②---|
口口口口 |----|
45
①②③④ |----|
口口口⑤ |①-②-|
口口口口 |③-④-|
口口口口 |⑤---|
46
口口口口 |①---|
①①①口 |----|
口②②② |②---|
口口口口 |----|
47
口口口口 |----|
口口口口 |①-②-|
①口口口 |③-④-|
②③④⑤ |⑤---|
48
口口口口 |①---|
②②②口 |----|
口①①① |②---|
口口口口 |----|
49
⑤④③② |----|
口口口① |①-②-|
口口口口 |③-④-|
口口口口 |⑤---|
50
口口口⑦ |①-②-|
口⑧⑧⑤ |③-④-|
口⑧⑧③ |⑤-⑥-|
⑥④②① |⑦-⑧-|
51
口口口口 |----|
④口口③ |----|
②口口① |①-②-|
口口口口 |③-④-|
52
口②口口 |①---|
口②①口 |----|
口②①口 |②---|
口口①口 |----|
53
⑤口口口 |----|
④口口口 |①-②-|
③口口口 |③-④-|
②①口口 |⑤---|
54
口①口口 |①---|
口①②口 |----|
口①②口 |②---|
口口②口 |----|
55
口口①② |----|
口口口③ |①-②-|
口口口④ |③-④-|
口口口⑤ |⑤---|
56
①②④⑥ |①-②-|
③口口口 |③-④-|
⑤口口口 |⑤-⑥-|
⑦口口口 |⑦---|
57
口口口⑦ |①-②-|
口⑧⑧⑤ |③-④-|
口⑧⑧③ |⑤-⑥-|
⑥④②① |⑦-⑧-|
58
口口口口 |----|
口口口口 |----|
②口口① |①---|
②口口① |②---|
59
②⑥⑤① |①---|
②④③① |②---|
口口口口 |③-④-|
口口口口 |⑤-⑥-|
60
口口口口 |①---|
②②②② |----|
①①①① |②---|
口口口口 |----|
61
①②③④ |----|
口口口⑤ |①-②-|
口口口口 |③-④-|
口口口口 |⑤---|
62
口口口口 |①---|
①①①口 |----|
口②②② |②---|
口口口口 |----|
63
口口口口 |----|
口口口口 |①-②-|
①口口口 |③-④-|
②③④⑤ |⑤---|
64
口口口口 |①---|
②②②口 |----|
口①①① |②---|
口口口口 |----|
65
⑤④③② |----|
口口口① |①-②-|
口口口口 |③-④-|
口口口口 |⑤---|
66
口口口⑦ |①-②-|
口⑧⑧⑤ |③-④-|
口⑧⑧③ |⑤-⑥-|
⑥④②① |⑦-⑧-|
67
口口口口 |----|
④口口③ |----|
②口口① |①-②-|
口口口口 |③-④-|
68
口②口口 |①---|
口②①口 |----|
口②①口 |②---|
口口①口 |----|
69
⑤口口口 |----|
④口口口 |①-②-|
③口口口 |③-④-|
②①口口 |⑤---|
70
口①口口 |①---|
口①②口 |----|
口①②口 |②---|
口口②口 |----|
71
口口①② |----|
口口口③ |①-②-|
口口口④ |③-④-|
口口口⑤ |⑤---|
72
①②④⑥ |①-②-|
③口口口 |③-④-|
⑤口口口 |⑤-⑥-|
⑦口口口 |⑦---|
73
口口口⑦ |①-②-|
口⑧⑧⑤ |③-④-|
口⑧⑧③ |⑤-⑥-|
⑥④②① |⑦-⑧-|
74
口口口③ |----|
口口口③ |①---|
②口口① |②---|
②口口① |③---|
75
①口口口 |①---|
①②②口 |②---|
口③③口 |③---|
口④④口 |④---|
76
①②②① |①---|
①②②① |--②-|
口口口口 |----|
口口③口 |--③-|
77
口②③口 |----|
口④①口 |①-②-|
口口⑤口 |③-④-|
口⑥口口 |⑤-⑥-|
78
②③口② |①---|
②口口② |--②-|
①口口① |----|
①口口① |--③-|
79
口口⑥口 |----|
口⑤口口 |①-②-|
口①④口 |③-④-|
口③②口 |⑤-⑥-|
80
①口口① |①---|
①口口① |----|
②口口② |②---|
②③口② |--③-|
81
口③②口 |----|
口①④口 |①-②-|
口⑤口口 |③-④-|
口口⑥口 |⑤-⑥-|
82
②口③② |①---|
②口口② |--②-|
①口口① |----|
①口口① |--③-|
83
口⑥口口 |----|
口口⑤口 |①-②-|
口④①口 |③-④-|
口②③口 |⑤-⑥-|
84
①口口口 |①---|
①口口② |----|
①口口② |②---|
口口口② |----|


不确定度: 0

最終更新:2012年11月27日 00:31