BLOOD on FIRE
AAA

ADVANCED

Level: 4
BPM: 155
Notes: 330

1
口口口口 |----|
口口口口 |----|
口口口口 |----|
口口口口 |----|
2
口口口口 |----|
口口口口 |----|
口口口口 |----|
口口口口 |----|
3
口④④口 |①---|
口③③口 |--②-|
口②②口 |--③-|
口①①口 |--④-|
4
①口口① |----|
②口口② |--①-|
③口口③ |--②-|
口口口口 |--③-|
5
①口口② |----|
③口口口 |--①-|
口口口口 |--②-|
口口口口 |--③-|
6
口口口口 |--①-|
口口口① |--②-|
口②②口 |--③-|
口③③口 |----|
7
口①①口 |①---|
口②口口 |--②-|
口口③口 |--③-|
口④口口 |--④-|
8
①口口口 |----|
口口口② |--①-|
③口口口 |--②-|
口口口口 |--③-|
9
口口口① |----|
②口口口 |--①-|
口口口③ |--②-|
口口口口 |--③-|
10
口口口口 |--①-|
口③③口 |--②-|
口②②口 |--③-|
口①①口 |----|
11
口口口口 |①---|
①口口① |--②-|
②口口③ |--③-|
口④④口 |--④-|
12
口①①口 |----|
②口口② |--①-|
口③③口 |--②-|
口口口口 |--③-|
13
口口口口 |----|
口口口口 |--①-|
②③③② |--②-|
①口口① |--③-|
14
口口口口 |----|
口①①口 |----|
口口口口 |----|
口口口口 |--①-|
15
口口口口 |----|
口口口口 |----|
口口口口 |----|
口口口口 |----|
16
口①③口 |----|
口口口口 |①---|
口口②口 |②---|
口口口口 |③---|
17
②口口④ |①---|
口口③口 |②---|
口①口口 |③---|
口口口口 |④---|
18
口口口口 |①---|
口①口口 |②---|
②口口④ |③---|
口口③口 |④---|
19
口④④口 |①---|
口③③口 |②---|
口②②口 |③---|
口①口口 |④---|
20
口口口口 |①---|
①口口③ |②---|
口口口口 |③---|
口④②口 |④---|
21
①口口③ |①---|
口口口口 |②---|
口④②口 |③---|
口口口口 |④---|
22
口①③口 |①---|
口口口口 |②---|
口④②口 |③---|
口口口口 |④---|
23
口①②口 |①---|
③口口③ |②---|
④口口④ |③---|
口口口口 |④---|
24
口①③口 |①---|
口口口口 |②---|
口④②口 |③---|
口口口口 |④---|
25
①口口③ |①---|
口④②口 |②---|
口口口口 |③---|
口口口口 |④---|
26
口口口口 |①---|
①口口③ |②---|
口口口口 |③---|
口④②口 |④---|
27
①口口③ |①---|
口口口口 |②---|
口④②口 |③---|
口口口口 |④---|
28
口①③口 |①---|
口口口口 |②---|
口④②口 |③---|
口口口口 |④---|
29
①口口③ |①---|
口④②口 |②---|
口口口口 |③---|
口口口口 |④---|
30
口口口口 |①---|
①口口③ |②---|
口口口口 |③---|
口④②口 |④---|
31
①③③① |①---|
②③③② |②---|
口④④口 |③---|
口④④口 |④---|
32
①口口口 |①---|
②口口口 |②---|
③口口口 |③---|
口④口口 |④---|
33
口口口④ |①---|
口口口③ |②---|
口口口② |③---|
口口①口 |④---|
34
③④④口 |①---|
口②①口 |②---|
口口口口 |③---|
口口口口 |④---|
35
口口口口 |①---|
口①①口 |②---|
口②②口 |----|
口口口口 |----|
36
口口口口 |①---|
口①口口 |②---|
口口②口 |③---|
口③④口 |④---|
37
④③口④ |①---|
口口②口 |②---|
口①口口 |③---|
口口口口 |④---|
38
口④口口 |①---|
①口口① |②---|
②口口② |③---|
③口口③ |④---|
39
口口口口 |①---|
口口①口 |②---|
口②口口 |----|
口口口口 |----|
40
口口口口 |----|
口①①口 |----|
口①①口 |--①-|
口口口口 |----|
41
口口口口 |----|
口⑤④口 |①---|
口③②口 |②-③-|
①口口① |④-⑤-|
42
②①①口 |--①-|
口口口口 |----|
口口口口 |----|
口口口口 |②---|
43
口口口① |①---|
②口口③ |②---|
④口口口 |③---|
口口口口 |④---|
44
口口口口 |①---|
口②②口 |----|
口②②① |--②-|
口口口口 |----|
45
口口口口 |----|
⑤口口④ |①---|
口③②口 |②-③-|
口①①口 |④-⑤-|
46
②①①② |--①-|
口口口口 |----|
口口口口 |----|
口口口口 |--②-|
47
口口口口 |----|
①口口① |--①-|
②口口② |----|
口口口口 |--②-|
48
口口口口 |----|
口②②口 |--①-|
口②②口 |----|
①口口① |--②-|
49
口口口口 |----|
口口口口 |----|
口口口口 |----|
口口口口 |----|
50
⑤⑥⑥⑤ |①---|
④⑥⑥④ |②---|
③②②③ |③-④-|
口①①口 |⑤-⑥-|
51
口口口口 |----|
口⑤④口 |①---|
口③②口 |②-③-|
①口口① |④-⑤-|
52
②①①口 |--①-|
口口口口 |----|
口口口口 |----|
口口口口 |②---|
53
口口口① |①---|
②口口③ |②---|
④口口口 |③---|
口口口口 |④---|
54
口口口口 |①---|
口②②口 |----|
口②②① |--②-|
口口口口 |----|
55
口口口口 |----|
⑤口口④ |①---|
口③②口 |②-③-|
口①①口 |④-⑤-|
56
②①①② |--①-|
口口口口 |----|
口口口口 |----|
口口口口 |--②-|
57
口口口口 |----|
①口口① |--①-|
②口口② |----|
口口口口 |--②-|
58
口口口口 |----|
口②②口 |--①-|
口②②口 |----|
①口口① |--②-|
59
口口口口 |----|
口口口口 |----|
口口口口 |----|
口口口口 |----|
60
⑤⑥⑥⑤ |①---|
④⑥⑥④ |②---|
③②②③ |③-④-|
口①①口 |⑤-⑥-|
61
口口口口 |----|
口⑤④口 |①---|
口③②口 |②-③-|
①口口① |④-⑤-|
62
②①①口 |--①-|
口口口口 |----|
口口口口 |----|
口口口口 |②---|
63
口口口① |①---|
②口口③ |②---|
④口口口 |③---|
口口口口 |④---|
64
口口口口 |①---|
口②②口 |----|
口②②① |--②-|
口口口口 |----|
65
口口口口 |----|
⑤口口④ |①---|
口③②口 |②-③-|
口①①口 |④-⑤-|
66
②①①② |--①-|
口口口口 |----|
口口口口 |----|
口口口口 |--②-|
67
口口口口 |----|
①口口① |--①-|
②口口② |----|
口口口口 |--②-|
68
口口口口 |----|
口②②口 |--①-|
口②②口 |----|
①口口① |--②-|
69
口口口口 |----|
口口口口 |----|
口口口口 |----|
口口口口 |----|
70
⑤⑥⑥⑤ |①---|
④⑥⑥④ |②---|
③②②③ |③-④-|
口①①口 |⑤-⑥-|


不确定度: 0

最終更新:2012年11月27日 00:31