BLOOD on FIRE
AAA

EXTREME

Level: 6
BPM: 155
Notes: 467

1
口口口口 |----|
口口口口 |----|
口口口口 |----|
口口口口 |----|
2
口口口口 |----|
口口口口 |----|
口口口口 |----|
口口口口 |----|
3
口④④口 |①---|
③④④③ |--②-|
②①①② |--③-|
口①①口 |--④-|
4
①口口① |----|
①②②① |--①-|
③②②③ |--②-|
③口口③ |--③-|
5
①口口② |----|
②口口① |--①-|
③口口口 |--②-|
口口口③ |--③-|
6
口口口口 |--①-|
口②③口 |--②-|
口③②① |--③-|
①口口口 |----|
7
①①①① |①---|
口②②口 |--②-|
口③③口 |--③-|
口④④口 |--④-|
8
①口口① |----|
②口口② |--①-|
③口口③ |--②-|
口口口口 |--③-|
9
①口口① |----|
②口口② |--①-|
③口口③ |--②-|
口口口口 |--③-|
10
口口口口 |--①-|
口③③口 |--②-|
口②②口 |--③-|
口①①口 |----|
11
①口口① |①---|
①口口① |--②-|
②口口② |--③-|
③④④③ |--④-|
12
口①①口 |----|
口②②口 |--①-|
口③③口 |--②-|
口口口口 |--③-|
13
口口口口 |----|
③③③③ |--①-|
②口口② |--②-|
①口口① |--③-|
14
①①①① |----|
口口口口 |----|
口口口口 |----|
口口口口 |--①-|
15
口口口口 |----|
口口口口 |----|
口口口口 |----|
口口口口 |----|
16
口①③口 |----|
口口口口 |①---|
口口②口 |②---|
口口口口 |③---|
17
②口口④ |①---|
口口③口 |②---|
口①口口 |③---|
口口口口 |④---|
18
口口口口 |①---|
口①⑤口 |②---|
②④口口 |③---|
口口③口 |④-⑤-|
19
口①②口 |①-②-|
口③口口 |③-④-|
⑦口④⑦ |⑤-⑥-|
口⑤⑥口 |⑦---|
20
口口口口 |--①-|
口①③口 |②---|
口口口口 |③---|
④口口② |④---|
21
①口口③ |①---|
口口口口 |②---|
口④②口 |③---|
口口口口 |④---|
22
口①③口 |①---|
口口口口 |②---|
口④②口 |③---|
口口口口 |④---|
23
①口口口 |①---|
③口②③ |②-③-|
④口口④ |④-⑤-|
⑤⑥⑥⑤ |⑥---|
24
⑤①③⑦ |①-②-|
口⑧⑥口 |③-④-|
口④②口 |⑤-⑥-|
口口口口 |⑦-⑧-|
25
⑤口口⑦ |①-②-|
口口口口 |③-④-|
①⑧⑥③ |⑤-⑥-|
口④②口 |⑦-⑧-|
26
口口口口 |①-②-|
①⑤⑦③ |③-④-|
口口口口 |⑤-⑥-|
⑧④②⑥ |⑦-⑧-|
27
①①③③ |①-②-|
⑤⑤⑦⑦ |③-④-|
④④②② |⑤-⑥-|
⑧⑧⑥⑥ |⑦-⑧-|
28
⑤①③⑦ |--①-|
口口⑥口 |②-③-|
口④②口 |④-⑤-|
口口口口 |⑥-⑦-|
29
⑥口口⑧ |①-②-|
口①口口 |③-④-|
②口⑦④ |⑤-⑥-|
口⑤③口 |⑦-⑧-|
30
⑥口口⑧ |①-②-|
②口口④ |③-④-|
口①口口 |⑤-⑥-|
口⑤③⑦ |⑦-⑧-|
31
口④④口 |①-②-|
③④④③ |③---|
②⑤⑤② |④---|
①⑤⑤口 |⑤---|
32
①口④④ |①---|
②口口口 |②---|
③口口口 |③---|
口口口口 |④---|
33
口①③③ |①---|
口②口口 |②---|
口口口口 |③---|
④口口口 |④---|
34
③④口口 |①---|
②口口口 |②---|
①口口口 |③---|
口口口口 |④---|
35
口③③口 |①---|
口①①口 |②---|
口②②口 |----|
口口口口 |--③-|
36
口口口口 |①-②-|
口①②口 |--③-|
口③④口 |④-⑤-|
⑦⑤⑥⑦ |⑥-⑦-|
37
口①①口 |----|
口②③口 |----|
口口口口 |--①-|
口口口口 |②-③-|
38
口口口口 |①-②-|
⑦口口⑥ |--③-|
⑤①②④ |④-⑤-|
口③③口 |⑥-⑦-|
39
口①①口 |①---|
口②②口 |②---|
口②②口 |----|
口口口口 |----|
40
口口口口 |----|
口①①口 |----|
②口口② |--①-|
口③③口 |②-③-|
41
口口口口 |----|
口⑤④口 |①---|
口③②口 |②-③-|
①口口① |④-⑤-|
42
口①①口 |--①-|
口口④口 |----|
口③口口 |--②-|
口口②口 |③-④-|
43
口①②口 |-①--|
口③口口 |②-③-|
口口④口 |④-⑤-|
⑥⑤口⑥ |--⑥-|
44
口口口口 |----|
①口口① |----|
口②②口 |--①-|
③口口③ |②-③-|
45
口口口口 |----|
⑤口口④ |①---|
口③②口 |②-③-|
口①①口 |④-⑤-|
46
④①①④ |--①-|
口③②口 |----|
口口口口 |--②-|
口口口口 |③-④-|
47
口口口口 |----|
①口口① |--①-|
③②口③ |----|
口口口口 |②-③-|
48
口口口口 |----|
④⑤⑤口 |①-②-|
口⑤⑤③ |--③-|
②口①② |④-⑤-|
49
口口口口 |----|
口口口口 |----|
口口口口 |----|
口口口口 |----|
50
②口口② |①---|
②口口② |②---|
①口口①
①口口①

口⑥⑥口
口⑥⑥口
⑤④④⑤ |③-④-|
口③③口 |⑤-⑥-|
51
口口口口 |----|
口⑤④口 |①---|
口③②口 |②-③-|
①口口① |④-⑤-|
52
口①①口 |--①-|
口口④口 |----|
口③口口 |--②-|
口口②口 |③-④-|
53
口①②口 |--①-|
口③口口 |②-③-|
口口④口 |④-⑤-|
⑥⑤口⑥ |--⑥-|
54
口口口口 |----|
①口口① |----|
口②②口 |--①-|
③口口③ |②-③-|
55
口口口口 |----|
⑤口口④ |①---|
口③②口 |②-③-|
口①①口 |④-⑤-|
56
④①①④ |--①-|
口③②口 |----|
口口口口 |--②-|
口口口口 |③-④-|
57
口口口口 |----|
②口口② |①-②-|
④③①④ |----|
口口口口 |③-④-|
58
口口口口 |----|
④⑤⑤口 |①-②-|
口⑤⑤③ |--③-|
②口①② |④-⑤-|
59
口口口口 |----|
口口口口 |----|
口口口口 |----|
口口口口 |----|
60
②口口② |①---|
②口口② |②---|
①口口①
①口口①

口⑥⑥口
口⑥⑥口
⑤④④⑤ |③-④-|
口③③口 |⑤-⑥-|
61
口口口口 |----|
口⑤④口 |①---|
口③②口 |②-③-|
①口口① |④-⑤-|
62
口①①口 |--①-|
口口④口 |----|
口③口口 |--②-|
口口②口 |③-④-|
63
口①②口 |-①--|
口③口口 |②-③-|
口口④口 |④-⑤-|
⑥⑤口⑥ |--⑥-|
64
口口口口 |----|
①口口① |----|
口②②口 |--①-|
③口口③ |②-③-|
65
口口口口 |----|
⑤口口④ |①---|
口③②口 |②-③-|
口①①口 |④-⑤-|
66
④①①④ |--①-|
口③②口 |----|
口口口口 |--②-|
口口口口 |③-④-|
67
口口口口 |----|
①口口① |--①-|
③②口③ |----|
口口口口 |②-③-|
68
口口口口 |----|
④⑤⑤口 |①-②-|
口⑤⑤③ |--③-|
②口①② |④-⑤-|
69
口口口口 |----|
口口口口 |----|
口口口口 |----|
口口口口 |----|
70
②口口② |①---|
②口口② |②---|
口①①口
口①①口

口口口口
口⑥⑥口
③⑥⑥③ |③-④-|
④⑤⑤④ |⑤-⑥-|


不确定度: 0

最終更新:2012年11月27日 00:30