A Perfect Sky

BASIC

Level: 3
BPM: 90
Notes: 166

1
口口口口 |----|
口口口口 |----|
口口口口 |----|
口口口口 |----|
2
口口口口 |①---|
①②③④ |②---|
口口口口 |③---|
口口口口 |④---|
3
④口口口 |①---|
③②口口 |②---|
口①口口 |③---|
口口口口 |④---|
4
口口口④ |①---|
口口②③ |②---|
口口①口 |③---|
口口口口 |④---|
5
⑥口口⑥ |①-②-|
⑤③④⑤ |③-④-|
口①②口 |⑤---|
口口口口 |⑥---|
6
⑥口口⑥ |①-②-|
⑤①②⑤ |③-④-|
③口口④ |⑤---|
口口口口 |--⑥-|
7
口口口口 |①---|
口口口口 |----|
口②口口 |②---|
口①口口 |----|
8
口②口口 |①---|
口①口口 |----|
口口口口 |②---|
口口口口 |----|
9
口口口口 |①---|
口口口口 |----|
口口②口 |②---|
口口①口 |----|
10
口口②口 |①---|
口口①口 |----|
口口口口 |②---|
口口口口 |----|
11
①②③④ |①-②-|
⑧⑦⑥⑤ |③-④-|
口口口口 |⑤-⑥-|
口口口口 |⑦-⑧-|
12
口口口口 |①-②-|
口口口口 |③---|
①②③口 |----|
口④⑤口 |④-⑤-|
13
④口口口 |----|
③口口口 |①-②-|
②口口口 |③-④-|
①⑤⑥口 |⑤-⑥-|
14
口口口④ |----|
口口口③ |①-②-|
口口口② |③-④-|
口口口① |----|
15
口口口口 |①-②-|
口口口口 |③-④-|
⑤⑥⑦⑧ |⑤-⑥-|
④③②① |⑦-⑧-|
16
口④⑤口 |①-②-|
口③②① |③---|
口口口口 |----|
口口口口 |④-⑤-|
17
口口口④ |----|
口口口③ |①-②-|
口口口② |③-④-|
口⑥⑤① |⑤-⑥-|
18
④口口口 |----|
③⑤⑤口 |①-②-|
②口口口 |③-④-|
①口口口 |⑤---|
19
口口口口 |①---|
口口口口 |----|
①口口① |②---|
口②②口 |----|
20
口口口口 |①---|
口②②口 |----|
口①①口 |②---|
口口口口 |----|
21
②①①② |①---|
口口口口 |----|
口口口口 |②---|
口口口口 |----|
22
⑥口口⑥ |①---|
⑤口口⑤ |②---|
④①①④ |③-④-⑤-|
③②②③ |⑥---|
23
④口口口 |①---|
③②口口 |②---|
口①口口 |③---|
口口口口 |④---|
24
口口口④ |①---|
口口②③ |②---|
口口①口 |③---|
口口口口 |④---|
25
⑥口口⑥ |①-②-|
⑤③④⑤ |③-④-|
口①②口 |⑤---|
口口口口 |⑥---|
26
⑥口口⑥ |①-②-|
⑤①②⑤ |③-④-|
③口口④ |⑤---|
口口口口 |⑥---|
27
④口口口 |①---|
③②口口 |②---|
口①口口 |③---|
口口口口 |④---|
28
口口口④ |①---|
口口②③ |②---|
口口①口 |③---|
口口口口 |④---|
29
⑥口口⑥ |①-②-|
⑤③④⑤ |③-④-|
口①②口 |⑤---|
口口口口 |⑥---|
30
⑥口口⑥ |①-②-|
⑤①②⑤ |③-④-|
③口口④ |⑤---|
口口口口 |--⑥-|
31
口口口口 |----|
口口口口 |----|
口口口口 |----|
口口口口 |----|
32
口口口口 |①---|
口①②口 |----|
口口口口 |②---|
口口口口 |----|
33
口口口口 |①---|
口口口口 |----|
口①②口 |②---|
口口口口 |----|
34
口口口口 |①---|
口④④口 |----|
口③③口 |②-③-|
口①②口 |-④--|


不确定度: 0

最終更新:2012年11月27日 00:30