A Perfect Sky

ADVANCED

Level: 5
BPM: 90
Notes: 276

1
口口口口 |----|
口口口口 |----|
口口口口 |----|
口口口口 |----|
2
口口口口 |①---|
①②③④ |②---|
①②③④ |③---|
口口口口 |④---|
3
⑧⑦⑥⑤ |①②③④|
⑨口③④ |⑤-⑥⑦|
⑩口②口 |-⑧-⑨|
口口①口 |⑩---|
4
⑤⑥⑦⑧ |①②③④|
④③口⑨ |⑤-⑥⑦|
口②口⑩ |-⑧-⑨|
口①口口 |⑩---|
5
口口口口 |①-②-|
①②③④ |③-④-|
口口口口
口口口口

口口口口
口⑥⑥口
口⑤⑤口 |⑤---|
口口口口 |⑥---|
6
口⑥⑥口 |①-②-|
口⑤⑤口 |③-④-|
④③②① |-⑤--|
口口口口 |-⑥--|
7
①口口口 |①---|
口②口口 |----|
口口口口 |②---|
口口口口 |----|
8
口口口③ |--①-|
口②口口 |-②--|
①口⑤⑤ |③-④-|
口口④④ |-⑤--|
9
口⑥口口 |①-②-|
口口⑤口 |-③--|
③①口④ |④--⑤|
口②口口 |--⑥-|
10
口口②口 |--①-|
口口③① |-②--|
⑤⑤口口 |③-④-|
④④口口 |-⑤--|
11
①②③④ |①-②-|
口口口⑤ |③-④⑤|
口⑩⑧⑥ |-⑥-⑦|
口⑨⑦口 |⑧-⑨⑩|
12
口口口口 |--①②|
③④⑤⑥ |----|
②口口口 |----|
①口口口 |③④⑤⑥|
13
①口②③ |----|
口口⑧口 |①-②③|
口④⑦⑤ |-④-⑤|
口口⑥口 |-⑥⑦⑧|
14
口口口口 |---①|
口②口① |-②-③|
口⑥④口 |④-⑤⑥|
口⑤③口 |----|
15
口口口⑦ |-①②③|
④③②① |④-⑤⑥|
口⑪⑨⑥ |-⑦-⑧|
口⑩⑧⑤ |⑨-⑩⑪|
16
口口口口 |--①②|
口口口口 |----|
②口口口
①口口口

⑥口口口
⑤口口口
④口口口 |----|
③口口口 |③④⑤⑥|
17
口④口⑨ |----|
口③⑤⑧ |①②③④|
口②⑤⑦ |-⑤--|
口①口⑥ |⑥⑦⑧⑨|
18
口口口口 |---①|
①②④⑤ |-②-③|
口⑥③口 |④-⑤-|
口口口口 |⑥---|
19
②口口① |①---|
口③④口 |②---|
口⑥⑤口 |③-④-|
口口口口 |⑤-⑥-|
20
③④口⑤ |①-②-|
②口口⑥ |③-④-|
①口口⑦ |--⑤-|
口口口口 |⑥-⑦-|
21
口口口口 |--①-|
口口④口 |②-③④|
⑤口口口 |----|
③②①口 |--⑤-|
22
①②③⑦ |--①-|
口口口⑥ |②-③-|
口口口⑤ |④-⑤-⑥-|
口口口④ |⑦---|
23
⑧⑦⑥⑤ |①②③④|
⑨口③④ |⑤-⑥⑦|
⑩口②口 |-⑧-⑨|
口口①口 |⑩---|
24
⑤⑥⑦⑧ |①②③④|
④③口⑨ |⑤-⑥⑦|
口②口⑩ |-⑧-⑨|
口①口口 |⑩---|
25
口口口口 |①-②-|
①②③④ |③-④-|
口口口口
口口口口

口口口口
口⑥⑥口
口⑤⑤口 |⑤---|
口口口口 |⑥---|
26
口⑥⑥口 |①-②-|
口⑤⑤口 |③-④-|
④③②① |-⑤--|
口口口口 |-⑥--|
27
⑧⑦⑥⑤ |①②③④|
⑨口③④ |⑤-⑥⑦|
⑩口②口 |-⑧-⑨|
口口①口 |⑩---|
28
⑤⑥⑦⑧ |①②③④|
④③口⑨ |⑤-⑥⑦|
口②口⑩ |-⑧-⑨|
口①口口 |⑩---|
29
口口口口 |①-②-|
①②③④ |③-④-|
口口口口
口口口口

口口口口
口⑥⑥口
口⑤⑤口 |⑤---|
口口口口 |⑥---|
30
口⑥⑥口 |①-②-|
口⑤⑤口 |③-④-|
④③②① |-⑤--|
口口口口 |-⑥--|
31
口口口口 |①---|
口口口口 |②---|
口②②口
口①①口

③③口口
口⑤口口
口⑤口口 |③--④|
④④口口 |--⑤-|
32
口口②② |①-②-|
口口①口 |-③--|
口口①口
口口③③

口口口口
⑤⑤⑥⑥
口④④口 |④-⑤-|
口口口口 |-⑥--|
33
②②④④ |①-②-|
口⑥口口 |-③--|
①⑥口① |④--⑤|
③③⑤⑤ |--⑥-|
34
口口口口 |①-②-|
口口①口 |-③--|
口口①口
②②③③

口④④口
⑥⑤⑤⑥
⑤⑥⑥⑤ |④-⑤-|
口口口口 |-⑥--|


不确定度: 0

最終更新:2012年11月27日 00:29