A Perfect Sky

EXTREME

Level: 7
BPM: 90
Notes: 415

1
口口口口 |----|
口口口口 |----|
口口口口 |----|
口口口口 |----|
2
口口口口 |①---|
①②③④ |②---|
①②③④ |③---|
口口口口 |④---|
3
②①③⑦ |①②③④|
①①①口 |⑤-⑥⑦|
④①⑤口
⑦口口⑥

⑩口口口
口⑨⑧口
口⑧口口 |-⑧-⑨|
口口口口 |⑩---|
4
口口口口 |①②③④|
口③①②
口①①①
口口①④

口口口口
⑥口⑦口 |⑤-⑥⑦|
口口口口
口⑤口口

口口⑧口
口⑧口⑧
口口⑧口 |-⑧-⑨|
⑨口⑩口 |⑩---|
5
口口口口 |①-②-|
④①⑤口 |③-④-|
①①①口 |⑤---|
②①③口 |----|
6
口①口③ |①-②-|
①①①口 |③-④-|
②①口④
口口口口

⑥⑦⑥⑦
⑦⑥⑦⑥
口⑤⑤口 |⑤-⑥-|
口⑤⑤口 |-⑦--|
7
⑤口口⑤ |①--②|
④③③④ |----|
②①①② |③--④|
口口口口 |--⑤-|
8
口口口口 |--①-|
口①②口 |-②--|
口①②口
口口口口

④⑤④⑤
⑤④⑤④
口口口口 |③-④-|
口③③口 |-⑤--|
9
⑥口口⑥ |①-②-|
⑤④④⑤ |-③--|
②①①② |④--⑤|
③口口③ |--⑥-|
10
口口口口 |--①-|
口①②口 |-②--|
口①②口
口口口口

④⑤④⑤
⑤④⑤④
口口口口 |③-④-|
口③③口 |-⑤--|
11
②口③⑤ |①-②-|
口口口④ |③-④⑤|
口①①口
口①①口

口口口口
口口口口
⑩⑥⑥⑨ |-⑥-⑦|
⑧口口⑦ |⑧-⑨⑩|
12
②口口① |--①②|
②口口① |----|
口口口口
口口口口

口口口口
③④⑤⑥
⑥⑤④③ |----|
口口口口 |③④⑤⑥|
13
①口②③ |----|
口口⑧口 |①-②③|
口④⑦⑤ |-④-⑤|
③②⑥① |-⑥⑦⑧|
14
口口口口 |---①|
口②口① |-②-③|
口⑥④口 |④-⑤⑥|
口⑤③口 |----|
15
口口口口 |-①②③|
④③②① |④-⑤⑥|
①②③④
⑥口口⑤

⑨口口⑧
⑪口⑦⑩
口⑦口口 |-⑦-⑧|
口口口口 |⑨-⑩⑪|
16
口口口口 |--①②|
口口口口 |----|
②口口①
口口口口

⑥口口⑥
⑤口口⑤
④口口④ |----|
③口口③ |③④⑤⑥|
17
口④④口 |----|
口③③口 |①②③④|
口②②口
口①①口

⑤口口⑤
口口口口
⑦⑧⑧⑦ |-⑤--|
⑥⑨⑨⑥ |⑥⑦⑧⑨|
18
口口口口 |---①|
①②④⑤ |-②-③|
口⑥③口 |④-⑤-|
口口口口 |⑥---|
19
②口口① |①---|
口口口口 |②---|
口②①口
口口口口

口口口口
口③④口
口⑥⑤口 |③-④-|
口口口口 |⑤-⑥-|
20
③④口⑤ |①-②-|
②口口⑥ |③-④-|
①口口⑦ |--⑤-|
口口口口 |⑥-⑦-|
21
口口口口 |--①-|
口口④口 |②-③④|
⑤口口口 |----|
③②①口 |--⑤-|
22
①②③⑦ |--①-|
口口口⑥ |②-③-|
口口口⑤ |④-⑤-⑥-|
⑦⑥⑤④ |⑦---|
23
②①③⑦ |①②③④|
①①①口 |⑤-⑥⑦|
④①⑤口
⑦口口⑥

⑩口口口
口⑨⑧口
口⑧口口 |-⑧-⑨|
口口口口 |⑩---|
24
口⑦口口 |①②③④|
⑥③①② |⑤-⑥⑦|
口①①①
口⑤①④

口口口⑨
口口⑧⑩
口口口口 |-⑧-⑨|
口口口口 |⑩---|
25
口口口口 |①-②-|
④①口口 |③-④-|
①①①口
②①③口

口口口口
口口⑤口
口口口口 |⑤---|
口⑥⑥口 |⑥---|
26
口①口③ |①-②-|
①①①口 |③-④-|
②①口④
口口口口

⑥⑦⑥⑦
⑦⑥⑦⑥
口⑤⑤口 |⑤-⑥-|
口⑤⑤口 |-⑦--|
27
②口③⑦ |①②③④|
口口口口 |⑤-⑥⑦|
④口⑤口
⑦①口⑥

⑩口口口
口⑨⑧口
口⑧口口 |-⑧-⑨|
口口口口 |⑩---|
28
口⑦口口 |①②③④|
⑥③①② |⑤-⑥⑦|
口①①①
口⑤①④

口口口⑨
口口⑧⑩
口口口口 |-⑧-⑨|
口口口口 |⑩---|
29
口口口口 |①-②-|
④①口口 |③-④-|
①①①口
②①③口

口口口口
口口⑤口
口口口口 |⑤---|
口⑥⑥口 |⑥---|
30
口①口③ |①-②-|
①①①口 |③-④-|
②①口④
口口口口

⑥⑦⑥⑦
⑦⑥⑦⑥
口⑤⑤口 |⑤-⑥-|
口⑤⑤口 |-⑦--|
31
口口口口 |①---|
口口口口 |②---|
①②②①
②①①②

③③口口
口⑤口口
口⑤口口 |③--④|
④④口口 |--⑤-|
32
口口②② |①-②-|
口口①口 |-③--|
口口①口
口口③③

口口口口
⑤口口⑥
④⑤⑥④ |④-⑤-|
口口口口 |-⑥--|
33
②②口口 |①-②-|
口①①口 |-③--|
口口口口
③③口口

口口④④
口⑥口口
口⑥口口 |④--⑤|
口口⑤⑤ |--⑥-|
34
口口口口 |①-②-|
口口①口 |-③--|
口口①口
②②③③

口④④口
⑥⑤⑤⑥
⑤⑥⑥⑤ |④-⑤-|
口口口口 |-⑥--|


不确定度: 0

最終更新:2012年11月27日 00:27