milky ice bear
S-C-U

EXTREME

Level: 8
BPM: 147
Notes: 717

1
口口口口 |----|
口口口口 |----|
口口口口 |----|
口口口口 |----|
2
口⑥④④ |--①-|
口口②口 |②-③-|
口③口⑥ |④---|
⑤①口口 |⑤-⑥-|
3
口口口口 |--①-|
④口①④ |②-③-|
口②口口 |--④-|
口口③口 |----|
4
口④口口 |①-②-|
口口③口 |③-④-|
口②口口 |----|
①⑤⑤① |--⑤-|
5
①口②口 |----|
口口口① |--①-|
口口③口 |--②-|
口口口口 |--③-|
6
口口口口 |①---|
④②口④ |--②-|
口口口口 |--③-|
③①①③ |--④-|
7
口口口口 |----|
口口口口 |----|
口①①口 |----|
口口口口 |--①-|
8
口口口口 |----|
口口口口 |----|
口口口口 |----|
口口口口 |----|
9
口口口口 |--①-|
口口④口 |②-③④|
口口口②
③①口口

口⑦口口
⑤口口⑥
口⑨⑧口 |-⑤⑥⑦|
口⑪⑩口 |⑧⑨⑩⑪|
10
④口①① |①-②-|
口②⑤⑤ |③-④⑤|
口口口③
口口口口

口⑨⑧口
口口口口
口⑨⑧口 |-⑥⑦-|
口⑦⑥口 |⑧-⑨-|
11
④口⑧① |①-②-|
⑨②⑤⑤ |③-④⑤|
口⑨⑧③ |-⑥⑦-|
口⑦⑥口 |⑧-⑨-|
12
④⑨⑧① |①-②-|
口②⑤⑤ |③-④⑤|
口⑨⑧③ |-⑥⑦-|
口⑦⑥口 |⑧-⑨-|
13
④⑨⑨① |①-②-|
口②⑤⑤ |③-④⑤|
口⑧⑧③ |-⑥⑦-|
口⑦⑥口 |⑧-⑨-|
14
④⑨⑧① |①-②-|
口②⑤⑤ |③-④⑤|
口⑨⑧③ |-⑥⑦-|
①⑦⑥口 |⑧-⑨-|
15
④口⑧① |①-②-|
⑨②⑤⑤ |③-④⑤|
口⑨⑧③ |-⑥⑦-|
①⑦⑥口 |⑧-⑨-|
16
④⑧⑧① |①-②-|
口②⑤口 |③-④⑤|
口⑨⑨③ |-⑥⑦-|
①⑦⑥口 |⑧-⑨-|
17
口口口① |--①-|
②④⑦口 |②-③-|
口口⑤③ |④-⑤-|
口⑥口口 |⑥-⑦-|
18
①④①④ |①--②|
⑥口口⑥ |--③-|
③①④③ |④--⑤|
②⑤②⑤ |--⑥-|
19
⑤②⑤② |①--②|
⑥①④⑥ |--③-|
③口口③ |④--⑤|
①④①④ |--⑥-|
20
⑤②⑤② |①--②|
⑥①④⑥ |--③-|
③口口③ |④--⑤|
①④①④ |--⑥-|
21
⑤②⑤② |①--②|
⑥①④⑥ |--③-|
③口口③ |④--⑤|
①④①④ |--⑥-|
22
⑤①⑤① |①--②|
⑥④②⑥ |--③-|
③⑤①③ |④--⑤|
④②④② |--⑥-|
23
④①④① |①--②|
⑥②⑤⑥ |--③-|
③④①③ |④--⑤|
②⑤②⑤ |--⑥-|
24
④①④① |①--②|
⑥②⑤⑥ |--③-|
③④①③ |④--⑤|
②⑤②⑤ |--⑥-|
25
③②④① |①--②|
口③⑤④ |--③-|
④⑤③口 |-④--|
①④②③ |⑤---|
26
②③口① |--①-|
口⑦⑤④ |②③-④|
口⑥⑨① |⑤-⑥⑦|
口口⑧口 |-⑧⑨-|
27
①②③④ |①-②-|
⑥口③⑥ |③-④-|
口⑥⑥口 |⑤--⑥|
⑦⑤⑤⑦ |--⑦-|
28
口口②口 |----|
口口口口 |----|
口口③口 |--①-|
①口口口 |②-③-|
29
⑤①⑤① |①-②-|
口口口② |③-④-|
⑥③⑥③ |⑤--⑥|
口⑦④⑦ |--⑦-|
30
②③口① |--①-|
口⑦⑤④ |②③-④|
口⑥⑨① |⑤-⑥⑦|
口口⑧口 |-⑧⑨-|
31
①②③④ |①-②-|
⑥口③⑥ |③-④-|
口⑥⑥口 |⑤--⑥|
⑦⑤⑤⑦ |--⑦-|
32
口口口口 |----|
口口口口 |----|
口口口口 |----|
口口口口 |----|
33
口④口④ |①-②-|
③⑥③⑥ |③-④-|
②口②口 |--⑤-|
①⑤①⑤ |⑥---|
34
①口口① |--①②|
②口口口 |③-④⑤|
③口⑤③
口④口口

口⑦口口
⑨口⑥⑨
口口口口 |-⑥⑦-|
口口⑧口 |⑧-⑨-|
35
⑤⑤口② |①-②-|
口③口口 |③-④⑤|
口①⑥④ |-⑥⑦-|
口⑦口口 |----|
36
⑧⑥口⑧ |--①-|
②口⑤② |②-③④|
⑦口④⑦ |-⑤⑥-|
①③口① |⑦-⑧-|
37
口④②口 |①-②-|
③口⑤① |③-④⑤|
口口口口
口口口口

口口口口
口⑦口⑧
口口⑥口 |-⑥⑦-|
⑨口口⑨ |⑧-⑨-|
38
①⑥口① |--①-|
⑧口⑤⑧ |②-③④|
②口④② |-⑤⑥-|
口③⑦口 |⑦-⑧-|
39
⑤⑤口② |①-②-|
口③口口 |③-④⑤|
口①⑥④ |-⑥⑦-|
口⑦口口 |----|
40
口口⑥口 |--①-|
⑤口④⑦ |②-③④|
③⑧⑧② |-⑤⑥-|
口口①口 |⑦-⑧-|
41
口⑥口口 |--①-|
口④⑦⑤ |②-③④|
②⑧⑧③ |-⑤⑥-|
口口口① |⑦-⑧-|
42
③口口③ |①-②-|
⑤口口⑤ |③-④⑤|
②口口②
①④④①

口⑨⑨口
口⑦⑦口
口⑥⑥口 |-⑥⑦-|
⑧口口⑧ |⑧-⑨-|
43
口口口口 |----|
口口口口 |----|
口口口口 |----|
口口口口 |----|
44
①①①① |①-②-|
口口②口 |③-④-|
③③③③
口口④口

⑦⑦⑦⑦
⑤口口⑥
口口口口 |⑤--⑥|
⑤口口⑥ |--⑦-|
45
④④④④ |--①-|
⑤①②⑤ |②---|
⑤③③⑤ |③--④|
③①②③ |--⑤-|
46
③口④④ |--①-|
⑦①口口 |②-③④|
口⑤⑥口 |-⑤⑥-|
⑧②口口 |⑦-⑧-|
47
口口口④ |①-②-|
⑤口③③ |③-④-|
口口口② |--⑤-|
⑤口①① |----|
48
②②②② |--①-|
③⑤⑤④ |②---|
口口①口 |③--④|
③口口④ |--⑤-|
49
口③口口 |-①②-|
⑤⑨⑦⑥ |③-④⑤|
口②①④ |-⑥⑦-|
口⑧口口 |⑧-⑨-|
50
①①①① |①-②-|
②口口口 |③-④⑤|
③口口③
⑤⑤口④

口口⑧⑧
口⑦⑥口
口⑨⑨口 |-⑥⑦-|
口口口口 |⑧-⑨-|
51
口①口口 |--①-|
④口②⑤ |②-③-|
口口口③ |④-⑤-|
⑥口口⑦ |⑥-⑦-|
52
①①①① |①-②-|
口口②口 |③-④-|
③③③③
口口④口

⑦⑦⑦⑦
⑤口口⑥
口口口口 |⑤--⑥|
⑤口口⑥ |--⑦-|
53
④④④④ |--①-|
⑤①②⑤ |②---|
⑤③③⑤ |③--④|
③①②③ |--⑤-|
54
④④⑥口 |--①-|
⑦①⑤口 |②-③④|
口口③口 |-⑤⑥-|
⑧②口口 |⑦-⑧-|
55
口④口④ |①-②-|
⑤③③③ |③-④-|
口②口② |--⑤-|
⑤①①① |----|
56
②②②② |--①-|
③⑤⑤④ |②---|
口口①口 |③--④|
③口口④ |--⑤-|
57
口③口口 |-①②-|
⑤⑨⑦⑥ |③-④⑤|
口②①④ |-⑥⑦-|
口⑧口口 |⑧-⑨-|
58
①①①① |①-②-|
②口口口 |③-④⑤|
③口口③
⑤⑤口④

⑨口口⑧
⑨⑦⑥⑧
口口口口 |-⑥⑦-|
口口口口 |⑧-⑨-|
59
口口口口 |--①-|
口口④口 |②-③④|
口口口②
③①口口

口⑦口口
⑤口口⑥
口⑨⑧口 |-⑤⑥⑦|
口⑪⑩口 |⑧⑨⑩⑪|
60
④口①① |①-②-|
口②⑤⑤ |③-④⑤|
口口口③
口口口口

口⑨⑧口
口口口口
口⑨⑧口 |-⑥⑦-|
口⑦⑥口 |⑧-⑨-|
61
④口⑧① |①-②-|
⑨②⑤⑤ |③-④⑤|
口⑨⑧③ |-⑥⑦-|
口⑦⑥口 |⑧-⑨-|
62
④⑨⑧① |①-②-|
口②⑤⑤ |③-④⑤|
口⑨⑧③ |-⑥⑦-|
口⑦⑥口 |⑧-⑨-|
63
④⑨⑨① |①-②-|
口②⑤⑤ |③-④⑤|
口⑧⑧③ |-⑥⑦-|
口⑦⑥口 |⑧-⑨-|
64
④⑨⑧① |①-②-|
口②⑤⑤ |③-④⑤|
口⑨⑧③ |-⑥⑦-|
①⑦⑥口 |⑧-⑨-|
65
④口⑧① |①-②-|
⑨②⑤⑤ |③-④⑤|
口⑨⑧③ |-⑥⑦-|
①⑦⑥口 |⑧-⑨-|
66
④⑧⑧① |①-②-|
口②⑤口 |③-④⑤|
口⑨⑨③ |-⑥⑦-|
①⑦⑥口 |⑧-⑨-|
67
口④口① |--①-|
②口⑤口 |②-③-|
口⑥口③ |④-⑤-|
口⑦⑦口 |⑥-⑦-|


不确定度: 0

最終更新:2012年12月27日 16:43