Twinkle Wonderland
Qrispy Joybox feat.Sana

EXTREME

Level: 8
BPM: 188
Notes: 617

1
口口口口 |----|
口口口口 |----|
口口口口 |----|
口口口口 |----|
2
口③口口 |①-②-|
②⑤①口 |③-④-|
口④⑥口 |--⑤-|
口口口⑦ |⑥-⑦-|
3
口口⑥口 |--①②|
①⑦口② |③④⑤-|
③口⑧④ |⑥-⑦-|
⑤⑨口口 |⑧-⑨-|
4
④④口口 |①-②-|
口口③口 |③-④-|
⑥②⑤口 |--⑤-|
⑥口⑤① |--⑥-|
5
⑪②①③ |--①②|
⑫口⑩④ |③④⑤⑥|
⑬⑦口⑤ |⑦⑧⑨⑩|
⑭⑨⑧⑥ |⑪⑫⑬⑭|
6
口口③口 |①-②-|
口①⑤② |③-④-|
口⑥④口 |--⑤-|
⑦口口口 |⑥-⑦-|
7
口⑥口口 |--①②|
②口⑦① |③④⑤-|
④⑧口③ |⑥-⑦-|
口口⑨⑤ |⑧-⑨-|
8
口口②① |①---|
②①口口 |----|
口口①② |②---|
①②口口 |----|
9
③口口③ |--①-|
口②①口 |--②-|
③①②③ |--③-|
①口口② |----|
10
⑤③③⑤ |--①-|
①口口② |②---|
口口口口 |③---|
①④④② |④-⑤-|
11
口口口口 |--①-|
③②③② |--②-|
①口口① |--③-|
③④④② |--④-|
12
②口⑤① |--①-|
③口口③ |②---|
②⑤口① |③---|
④口口④ |④-⑤-|
13
④①口④ |--①-|
口②③口 |--②-|
③口①② |--③-|
口②③口 |--④-|
14
口③③⑤ |--①-|
①④口② |②---|
⑤口口口 |③---|
①口④② |④-⑤-|
15
①口口口 |--①-|
②口口③ |--②-|
口③②① |--③-|
口②③口 |----|
16
口②①口 |①---|
③①②③ |--②-|
①③③② |----|
③口口③ |--③-|
17
口口口口 |----|
口口口口 |----|
口口口口 |----|
口口口口 |----|
18
①口③② |①-②-|
口口①④ |③-④-|
③口口口
口口口口

⑧⑧口口
⑤口口口
口⑥⑤⑧ |⑤-⑥-|
口口⑦⑥ |⑦-⑧-|
19
口口③② |①-②-|
口口①④ |③-④-|
口口⑤⑧ |⑤-⑥-|
②②⑦⑥ |⑦-⑧-|
20
①口③② |①-②-|
口口①④ |③-④-|
③口口口
口口口口

⑧⑧口口
⑤口口口
口⑥⑤⑧ |⑤-⑥-|
口口⑦⑥ |⑦-⑧-|
21
口口③② |①-②-|
口口①④ |③-④-|
口口口口
口口口口

口口口口
口口⑦口
口口⑤口 |⑤-⑥-|
口口⑦⑥ |--⑦-|
22
②③口① |①-②-|
④①口口 |③-④-|
口口口③
口口口口

口口⑧⑧
口口口⑤
⑧⑤⑥口 |⑤-⑥-|
⑥⑦口口 |⑦-⑧-|
23
②③口口 |①-②-|
④①口口 |③-④-|
⑧⑤口口 |⑤-⑥-|
⑥⑦②② |⑦-⑧-|
24
②③口① |①-②-|
④①口口 |③-④-|
口口口③
口口口口

口口口口
口⑧⑧⑤
口⑤⑥口 |⑤-⑥-|
⑥⑦口口 |⑦-⑧-|
25
③①②④ |--①-|
②口口② |--②-|
口②口① |--③-|
口口①口 |--④-|
26
口①③⑤ |①-②-|
口口口口 |--③-|
②⑥口④ |④---|
⑥②④口 |⑤-⑥-|
27
②口口⑤ |--①-|
①②⑤① |----|
口④③口 |②-③-|
④口口③ |④-⑤-|
28
⑤③①口 |①-②-|
口口口口 |--③-|
④口⑥② |④---|
口④②⑥ |⑤-⑥-|
29
④口③⑤ |--①-|
②口口③ |②-③-|
口②口① |--④-|
口口①口 |--⑤-|
30
口①③⑤ |①-②-|
口口口口 |--③-|
②⑥口④ |④---|
⑥②④口 |⑤-⑥-|
31
②口口⑤ |--①-|
①②⑤① |----|
口④③口 |②-③-|
④口口③ |④-⑤-|
32
口口①口 |①-②-|
③口口③ |--③-|
口④④② |----|
口口②口 |④---|
33
②口口② |--①-|
口①①口 |----|
口口口口 |②---|
口口口口 |----|
34
口口口口 |①---|
口口口① |②---|
口口口口
①口口②

⑤口口③
口⑤④⑤
口口口口 |③-④-|
口口口口 |--⑤-|
35
口口②③ |①---|
口口④口 |②---|
口口①⑤ |③-④-|
口口⑥口 |⑤-⑥-|
36
口⑤口③ |①---|
口口④① |②---|
口口口口 |③-④-|
口口口② |--⑤-|
37
口口①口 |①---|
口口口口 |②-③-|
③②②④ |--④-|
口③④口 |----|
38
口口口口 |①---|
①口口口 |②---|
口口口口
②口口①

③口口⑤
⑤④⑤口
口口口口 |③-④-|
口口口口 |--⑤-|
39
③②口口 |①---|
口④口口 |②---|
⑤①口口 |③-④-|
口⑥口口 |⑤-⑥-|
40
③口口口 |①---|
①④口口 |②---|
口⑤⑤口 |③-④-|
②口口口 |--⑤-|
41
口口口口 |--①-|
口口口口 |----|
口口口口 |----|
口①①口 |----|
42
口①③⑤ |①-②-|
口口口口 |--③-|
②⑥口④ |④---|
⑥②④口 |⑤-⑥-|
43
②口口⑤ |--①-|
①②⑤① |----|
口④③口 |②-③-|
④口口③ |④-⑤-|
44
⑤③①口 |①-②-|
口口口口 |--③-|
④口⑥② |④---|
口④②⑥ |⑤-⑥-|
45
④口③⑤ |--①-|
②口口③ |②-③-|
口②口① |--④-|
口口①口 |--⑤-|
46
口①③口 |①-②-|
口口口口 |--③-|
②口口口
口②口口

口⑥口口
⑥⑤⑥口
口⑥口④ |④---|
口口④口 |⑤-⑥-|
47
②口口② |--①-|
口③口口 |--②-|
③口③口 |--③-|
①③口① |----|
48
口口①口 |①-②-|
③口口③ |--③-|
口④④② |----|
口口②口 |④---|
49
口口口口 |--①-|
口①①口 |----|
口口口口 |----|
口口口口 |----|
50
口①口口 |①---|
①③①口 |----|
②①③口 |----|
口②口口 |②-③-|
51
①口口① |----|
口口口口 |----|
口口口口 |①---|
口口口口 |----|
52
口口口口 |①---|
口口口口 |----|
口口口口 |----|
①②②① |--②-|
53
⑨⑪⑪⑩ |--①②|
⑤①④⑧ |③④⑤⑥|
⑦③②⑥ |⑦⑧⑨⑩|
口口口口 |⑪---|
54
口②③口 |①---|
②口口③ |----|
②口口③ |----|
①口口① |②-③-|
55
口口口口 |----|
口口口口 |----|
口口口口 |----|
口口口口 |----|
56
口口②① |①---|
②①口口 |----|
口口①② |②---|
①②口口 |----|
57
③口口③ |--①-|
口②①口 |--②-|
③①②③ |--③-|
①口口② |----|
58
⑤③③⑤ |--①-|
①口口② |②---|
口口口口 |③---|
①④④② |④-⑤-|
59
口口口口 |--①-|
③②③② |--②-|
①口口① |--③-|
③④④② |--④-|
60
②口⑤① |--①-|
③口口③ |②---|
②⑤口① |③---|
④口口④ |④-⑤-|
61
④①口④ |--①-|
口②③口 |--②-|
③口①② |--③-|
口②③口 |--④-|
62
口③③⑤ |--①-|
①④口② |②---|
⑤口口口 |③---|
①口④② |④-⑤-|
63
①口口口 |--①-|
②口口③ |--②-|
口③②① |--③-|
口②③口 |----|
64
口②①口 |①---|
③①②③ |--②-|
①③③② |----|
③口口③ |--③-|
65
口②①口 |----|
口口口口 |----|
口口口口 |--①-|
口①②口 |--②-|
66
口⑧口① |①-②-|
⑧⑥①口 |③-④-|
②口⑤⑦ |⑤-⑥-|
④口口③ |⑦-⑧-|
67
②口口口 |①-②-|
口口①③ |③-④-|
⑧⑥口口 |⑤-⑥-|
④口⑦⑤ |⑦-⑧-|
68
④②③① |①-②-|
口④①⑤ |③-④-|
口⑥⑦口 |⑤-⑥-|
⑧口口⑦ |⑦-⑧-|
69
口口口口 |①-②-|
②⑥①⑤ |③-④-|
⑥⑧⑦口 |⑤-⑥-|
⑧④③口 |⑦-⑧-|
70
⑧②③口 |①-②-|
④⑧①⑦ |③-④-|
口口口① |⑤-⑥-|
口⑥口⑤ |⑦-⑧-|
71
⑧口口⑦ |①-②-|
口口①口 |③-④-|
②④口⑤ |⑤-⑥-|
⑥口③口 |⑦-⑧-|
72
③②①③ |①---|
②①②① |--②-|
③②①③ |----|
口口口口 |--③-|
73
口口口口 |----|
口口口口 |----|
口口口口 |----|
口口口口 |----|
74
口口口口 |①---|
口①③① |----|
口②口③ |----|
口①②① |②-③-|
75
口口口口 |----|
口口口口 |----|
口口口口 |----|
口口口口 |----|
76
口口口口 |①---|
口口口口 |----|
口口①口 |----|
口口口口 |----|


不确定度: 0

最終更新:2012年12月27日 16:37