ワープ
lego big morl

BASIC

Level: 2
BPM: 173-183
Notes: 170

全程BPM: 173-183飄忽不定
1
口口口口 |----|
口口口口 |----|
口口口口 |----|
口口口口 |----|
2
口口口口 |①---|
口口口口 |②---|
口③口口 |----|
口①②口 |③---|
3
口口口口 |①---|
口口口口 |----|
口口①口 |----|
口口口口 |----|
4
口口口口 |①---|
口口口口 |②---|
口③口口 |----|
口①②口 |③---|
5
口口口口 |①---|
口口口口 |----|
口口①口 |----|
口口口口 |----|
6
口口口口 |①---|
口口口口 |②---|
③口口口 |----|
①口口② |③---|
7
口口口口 |①---|
口口口口 |----|
口口口① |----|
口口口口 |----|
8
口口口口 |①---|
口口口口 |②---|
③口口口 |----|
①口口② |③---|
9
口口口口 |①---|
口口口口 |----|
口口口① |----|
口口口口 |----|
10
①②口口 |①---|
口口口口 |----|
口口口口 |②---|
口口口口 |----|
11
口口口口 |①---|
口口①② |----|
口口口口 |②---|
口口口口 |----|
12
口口口口 |①---|
口口口口 |----|
口口②① |②---|
口口口口 |----|
13
口口口口 |①---|
口口口口 |----|
口口口口 |②---|
②①口口 |----|
14
口口口口 |①---|
①②口口 |----|
口口口口 |②---|
口口口口 |----|
15
口口①② |①---|
口口口口 |----|
口口口口 |②---|
口口口口 |----|
16
口口口口 |①---|
口口口口 |----|
口口口口 |②---|
口口②① |----|
17
口口口口 |①---|
口口口口 |----|
②①口口 |②---|
口口口口 |----|
18
①②口口 |①---|
口口口口 |----|
口口口口 |②---|
口口口口 |----|
19
口口口口 |①---|
口口①② |----|
口口口口 |②---|
口口口口 |----|
20
口口口口 |①---|
口口口口 |----|
口口②① |②---|
口口口口 |----|
21
口口口口 |①---|
口口口口 |----|
口口口口 |②---|
②①口口 |----|
22
口口口口 |①---|
①②口口 |----|
口口口口 |②---|
口口口口 |----|
23
口口①② |①---|
口口口口 |----|
口口口口 |②---|
口口口口 |----|
24
口口口口 |①---|
口口口口 |----|
口口口口 |②---|
口口②① |----|
25
口口口口 |①---|
口口口口 |----|
②①口口 |②---|
口口口口 |----|
26
口口口口 |①---|
口②①口 |----|
口口口口 |②---|
口口口口 |----|
27
口②①口 |①---|
口口口口 |----|
口口口口 |②---|
口口口口 |----|
28
口口口口 |①---|
口口口口 |----|
口①①口 |----|
口口口口 |----|
29
口口口口 |----|
口口口口 |----|
口口口口 |----|
口口口口 |----|
30
口口口口 |①---|
口口口口 |----|
口②口口 |②---|
口口①口 |----|
31
口口口口 |①---|
口口口口 |----|
口口②口 |②---|
口①口口 |----|
32
口②口口 |①---|
口口①口 |----|
口口口口 |②---|
口口口口 |----|
33
口口口口 |①---|
口①口口 |----|
口口口口 |----|
口口口口 |----|
34
口口口口 |①---|
口①②口 |----|
口口口口 |②---|
口口口口 |----|
35
口①②口 |①---|
口口口口 |----|
口口口口 |②---|
口口口口 |----|
36
口口口口 |①---|
口口口口 |----|
口①①口 |----|
口口口口 |----|
37
口口口口 |----|
口口口口 |----|
口口口口 |----|
口口口口 |----|
38
口口口口 |①---|
口口口口 |----|
口②口口 |②---|
口口①口 |----|
39
口口口口 |①---|
口口口口 |----|
口口②口 |②---|
口①口口 |----|
40
口口口口 |①---|
口口①口 |----|
口口口口 |----|
口口口口 |----|
41
口口口口 |----|
口口口口 |----|
口口口口 |----|
口口口口 |----|
42
口口口口 |----|
口口口口 |----|
口口口口 |----|
口口口口 |----|
43
口口口口 |----|
口口口口 |----|
口口口口 |----|
口口口口 |----|
44
口口口口 |①---|
口②口④ |②---|
①口③口 |③---|
口口口口 |④---|
45
口口口口 |①---|
口口②口 |②---|
口③口① |③---|
口口口口 |----|
46
口口口口 |①---|
口②口④ |②---|
①口③口 |③---|
口口口口 |④---|
47
口口口口 |①---|
口口②口 |②---|
口③口① |③---|
口口口口 |----|
48
口口口口 |①---|
口口口口 |----|
口口②口 |②---|
口①口口 |----|
49
口口口口 |①---|
口①口口 |----|
口口口口 |----|
口口口口 |----|
50
口口口口 |①---|
口口口口 |----|
口②口口 |②---|
口口①口 |----|
51
口口口口 |①---|
口口①口 |----|
口口口口 |----|
口口口口 |----|
52
口口口口 |①---|
口②口④ |②---|
①口③口 |③---|
口口口口 |④---|
53
口口口口 |①---|
口口②口 |②---|
口③口① |③---|
口口口口 |----|
54
口口口口 |①---|
口②口④ |②---|
①口③口 |③---|
口口口口 |④---|
55
口口口口 |①---|
口口②口 |②---|
口③口① |③---|
口口口口 |----|
56
口口口口 |①---|
口口口口 |----|
口口②口 |②---|
口①口口 |----|
57
口口口口 |①---|
口①口口 |----|
口口口口 |②---|
口口②口 |----|
58
口口口口 |①---|
口口②口 |----|
口①口口 |②---|
口口口口 |----|
59
口①口口 |①---|
口口口口 |----|
口口口口 |----|
口口口口 |----|
60
口口口口 |①---|
口③口口 |----|
①口口② |②---|
口口口口 |--③-|
61
口口口口 |--①-|
口口①② |--②-|
口口口口 |----|
口口口口 |----|
62
口口口口 |①---|
口口口口 |----|
口③口口 |②---|
①口口② |--③-|
63
口口口口 |--①-|
口口口口 |--②-|
口口①② |----|
口口口口 |----|
64
口口②口 |①---|
口①口口 |----|
口口口口 |②---|
口口口口 |----|
65
口口口口 |①---|
口口口① |----|
口口口② |②---|
口口口口 |----|
66
口口口口 |①---|
口口口口 |----|
口口口口 |----|
口①①口 |----|
67
口口口口 |----|
口口口口 |----|
口口口口 |----|
口口口口 |----|
68
口口口口 |①---|
口③口口 |----|
①口口② |②---|
口口口口 |--③-|
69
口口口口 |--①-|
口口①② |--②-|
口口口口 |----|
口口口口 |----|
70
口口口口 |①---|
口口口口 |----|
口③口口 |②---|
①口口② |--③-|
71
口口口口 |--①-|
口口口口 |--②-|
口口①② |----|
口口口口 |----|
72
口口②口 |①---|
口①口口 |----|
口口口口 |②---|
口口口口 |----|
73
口口口口 |①---|
口口口① |----|
口口②口 |②---|
口口口口 |----|
74
口口口口 |①---|
口口口口 |----|
口②②口 |②---|
口①①口 |----|
75
口②②口 |①---|
口①①口 |----|
口口口口 |②---|
口口口口 |----|
76
①②口① |①---|
口口口口 |----|
口口口口 |②---|
口口口口 |----|
77
口口口口 |①---|
口口①② |----|
口口口口 |②---|
口口口口 |----|
78
口口口口 |①---|
口口口口 |----|
口口②① |②---|
口口口口 |----|
79
口口口口 |①---|
口口口口 |----|
口口口口 |②---|
②①口口 |----|
80
口口口口 |①---|
①②口口 |----|
口口口口 |②---|
口口口口 |----|
81
口口①② |①---|
口口口口 |----|
口口口口 |②---|
口口口口 |----|
82
口口口口 |①---|
口口口口 |----|
口口口口 |②---|
口口②① |----|
83
口口口口 |①---|
口口口口 |----|
②①口口 |②---|
口口口口 |----|
84
口口口口 |①---|
口①①口 |----|
口口口口 |----|
口口口口 |----|


不确定度: 0

最終更新:2012年11月23日 03:07