ワープ
lego big morl

ADVANCED

Level: 5
BPM: 173-183
Notes: 336

全程BPM: 173-183飄忽不定
1
口口口口 |----|
口口口口 |----|
口口口口 |----|
口口口口 |----|
2
口口口口 |①-②-|
⑤⑥口口 |③-④-|
①②③④ |----|
口口口口 |⑤-⑥-|
3
口③④口 |①-②-|
口口①② |----|
口口口口 |③-④-|
口口口口 |----|
4
口口口口 |①-②-|
⑤⑥口口 |③-④-|
①②③④ |----|
口口口口 |⑤-⑥-|
5
口③④口 |①-②-|
口口①② |----|
口口口口 |③-④-|
口口口口 |----|
6
口口口口 |①-②-|
口口口口 |③-④-|
⑤⑥口口 |----|
①②③④ |⑤-⑥-|
7
口口口口 |①-②-|
口③④口 |----|
口口①② |③-④-|
口口口口 |----|
8
口口口口 |①-②-|
口口口口 |③-④-|
⑤⑥口口 |----|
①②③④ |⑤-⑥-|
9
口口口口 |①-②-|
口口口口 |----|
口口①② |----|
口口口口 |----|
10
口口口口 |①---|
口口口口 |②---|
口口口口 |③---|
③①②④ |④---|
11
口口口口 |①---|
口口口口 |②---|
③①②④ |③---|
口口口口 |④---|
12
①③④② |①---|
口口口口 |②---|
口口口口 |③---|
口口口口 |④---|
13
口口口口 |①---|
①③④② |②---|
口口口口 |③---|
口口口口 |④---|
14
口④②① |①---|
口口口③ |②---|
口口口口 |③---|
口口口口 |④---|
15
③口口口 |①---|
口④①口 |②---|
口口口② |③---|
口口口口 |④---|
16
口口口口 |①---|
③口口口 |②---|
口④①口 |③---|
口口口② |④---|
17
口口口口 |①---|
口口口口 |②---|
②④口口 |③-④-|
口③①口 |----|
18
①口口② |①---|
③口口④ |②---|
口口口口 |③---|
口口口口 |④---|
19
口口口口 |①---|
口口口口 |②---|
①口口② |③---|
③口口④ |④---|
20
口口④口 |①---|
口③口口 |②---|
口口②口 |③---|
口①口口 |④---|
21
口①口口 |①---|
口口②口 |②---|
口③口口 |③---|
口口④口 |④---|
22
口口口④ |①---|
③口口口 |②---|
口口口② |③---|
①口口口 |④---|
23
①口口口 |①---|
口口口② |②---|
③口口口 |③---|
口口口④ |④---|
24
口口口口 |①---|
口口口口 |②---|
口④口③ |③---|
②口①口 |④---|
25
口④口③ |①---|
②口①口 |②---|
口口口口 |③---|
口口口口 |④---|
26
口口口口 |①---|
口口口口 |----|
口②②口 |②---|
口①①口 |----|
27
口②②口 |①---|
口①①口 |----|
口口口口 |②---|
口口口口 |----|
28
口口口口 |①---|
①口口① |----|
口口口口 |----|
口口口口 |----|
29
①②口口 |----|
口口口口 |----|
口口口口 |----|
口口口口 |①-②-|
30
口口①② |①-②-|
口③④口 |--③-|
口⑤口口 |--④-|
口口口口 |--⑤-|
31
口口口口 |--①-|
口口口口 |--②-|
②口①口 |--③-|
③④⑤口 |④-⑤-|
32
口口口口 |①---|
口④④口 |②-③-|
口②③口 |----|
口口口① |④---|
33
口口口口 |----|
口口口口 |----|
口口口口 |----|
口口口口 |----|
34
口口口口 |①---|
口口口口 |----|
口②②口 |②---|
口①①口 |----|
35
口②②口 |①---|
口①①口 |----|
口口口口 |②---|
口口口口 |----|
36
口口口口 |①---|
①口口① |----|
口口口口 |----|
口口口口 |----|
37
①②口口 |----|
口口口口 |----|
口口口口 |----|
口口口口 |①-②-|
38
口口①② |①-②-|
③④⑤⑥ |③-④-|
口⑦口口 |⑤-⑥-|
口口口口 |--⑦-|
39
口口口口 |--①-|
口口口口 |--②-|
②口①口 |--③-|
③口④口 |--④-|
40
口口口口 |----|
口口口口 |----|
口口口口 |----|
口口口口 |----|
41
口口口口 |----|
口口口口 |----|
口口口口 |----|
口口口口 |----|
42
口口口口 |----|
口口口口 |----|
口口口口 |----|
口口口口 |----|
43
口口口口 |----|
口口口口 |----|
口口口口 |----|
口①口口 |--①-|
44
口口口口 |①---|
口③④口 |②---|
⑤②口⑤ |③-④-|
口口①口 |--⑤-|
45
②口口② |--①-|
①口口① |--②-|
口口口口 |----|
口③口口 |--③-|
46
口口口口 |①---|
口③④口 |②---|
⑤②口⑤ |③-④-|
口口①口 |--⑤-|
47
②口口② |--①-|
①口口① |--②-|
口③口④ |----|
口口口口 |③-④-|
48
口口④口 |①---|
口口②③ |②-③-|
口口①口 |----|
口口口口 |④---|
49
口口口口 |----|
口口口口 |----|
口①③② |①-②-|
口口口口 |③---|
50
口口②③ |①---|
口口①口 |②-③-|
口④口口 |----|
口口口口 |④---|
51
口口口口 |--①-|
①口口口 |----|
口口口口 |----|
口②口口 |--②-|
52
口口口口 |①---|
口③④口 |②---|
⑤②口⑤ |③-④-|
口口①口 |--⑤-|
53
②口口② |--①-|
①口口① |--②-|
口口口口 |----|
口③口口 |--③-|
54
口口口口 |①---|
口③④口 |②---|
⑤②口⑤ |③-④-|
口口①口 |--⑤-|
55
②口口② |--①-|
①口口① |--②-|
③口口口 |----|
口口口口 |③---|
56
口口口口 |①---|
③口口② |--②-|
口①口口 |----|
口口口口 |③---|
57
口口口口 |①---|
口口口③ |--②-|
①②口口 |----|
口口口口 |③---|
58
口口口口 |①---|
口口口口 |----|
②②②② |②---|
①①①① |----|
59
口口口口 |①---|
①①①① |----|
口口口口 |----|
口口口口 |----|
60
口⑦⑧口 |①-②-|
口⑤⑥口 |③-④-|
口③④口 |⑤-⑥-|
口①②口 |⑦-⑧-|
61
口口口口 |--①-|
②口口② |--②-|
①口口① |----|
口口口口 |----|
62
⑦口口⑧ |①-②-|
⑤口口⑥ |③-④-|
③口口④ |⑤-⑥-|
①口口② |⑦-⑧-|
63
口口口口 |--①-|
口②②口 |--②-|
口①①口 |----|
口口口口 |----|
64
口口口口 |①---|
③口口口 |----|
口②②口 |②---|
口①①口 |--③-|
65
口口口口 |①-②-|
口①②⑤ |--③-|
口口口④ |--④-|
口口口③ |--⑤-|
66
口口口① |--①-|
口口口口 |----|
口口口口 |----|
口口口口 |----|
67
口口口口 |----|
口口口口 |----|
口口口口 |----|
①口口口 |--①-|
68
口⑥⑦口 |①-②-|
口④⑤口 |③---|
口③口口 |④-⑤-|
口①②口 |⑥-⑦-|
69
口口口口 |--①-|
口口口口 |②-③-|
口①②口 |----|
④口③口 |--④-|
70
⑤口口⑥ |①---|
③口口④ |②---|
口口口② |③-④-|
口口口① |⑤-⑥-|
71
口口口口 |--①-|
口口③口 |②-③-|
口①②口 |----|
口口口口 |----|
72
口口口口 |①---|
口口口口 |----|
口②②口 |②---|
口①①口 |----|
73
②口口③ |①---|
口①①口 |--②-|
口口口口 |③---|
口口口口 |----|
74
口口口口 |①---|
口口口口 |----|
②口口② |②---|
①口口① |----|
75
口口口口 |①---|
①②②① |----|
口口口口 |②---|
口口口口 |----|
76
口①①口 |①---|
口③④② |②---|
口口口口 |③---|
口口口口 |④---|
77
③①②④ |①---|
口口口口 |②---|
口口口口 |③---|
口口口口 |④---|
78
口口口口 |①---|
口口口口 |②---|
口口口口 |③---|
③①②④ |④---|
79
口口口口 |①---|
口口口口 |②---|
③①②④ |③---|
口口口口 |④---|
80
①③④② |①---|
口口口口 |②---|
口口口口 |③---|
口口口口 |④---|
81
口口口口 |①---|
①③④② |②---|
口口口口 |③---|
口口口口 |④---|
82
口④②① |①---|
口口口③ |②---|
口口口口 |③---|
口口口口 |④---|
83
③口口口 |①---|
口④①口 |②---|
口口口② |③---|
口口口口 |④---|
84
口口口口 |①---|
口口口口 |----|
口①①口 |----|
口口口口 |----|


不确定度: 0

最終更新:2012年11月23日 03:06