ワープ
lego big morl

EXTREME

Level: 7
BPM: 173-183
Notes: 523

全程BPM: 173-183飄忽不定
1
口口口口 |----|
口口口口 |----|
口口口口 |----|
口口口口 |----|
2
③④口口 |①-②-|
①②⑤⑥ |③-④-|
口口口口 |----|
口口口口 |⑤-⑥-|
3
口口①② |①-②-|
口口口口 |----|
口③④口 |③-④-|
口口口口 |----|
4
③④口口 |①-②-|
①②⑤⑥ |③-④-|
口口口口 |----|
口口口口 |⑤-⑥-|
5
口口①② |①-②-|
口口口口 |----|
口③④口 |③-④-|
口口口口 |----|
6
口口口口 |①-②-|
口口口口 |③-④-|
③④口口 |----|
①②⑤⑥ |⑤-⑥-|
7
口口口口 |①-②-|
口③④口 |----|
口口①② |③-④-|
口口口口 |----|
8
⑥⑤③① |①-②-|
口口口口 |③-④-|
③④口口 |⑤---|
①②⑥⑦ |⑥-⑦-|
9
口口口口 |①-②-|
①③④⑤ |③---|
口口①② |④---|
口口口口 |⑤---|
10
口①⑤口 |①-②-|
口②⑥口 |③-④-|
口③⑦口 |⑤-⑥-|
口④⑧口 |⑦-⑧-|
11
⑦口口⑧ |①-②-|
⑤口口⑥ |③-④-|
③口口④ |⑤-⑥-|
①口口② |⑦-⑧-|
12
口①⑤口 |①-②-|
口②⑥口 |③-④-|
口③⑦口 |⑤-⑥-|
口④⑧口 |⑦-⑧-|
13
⑦口口⑧ |①-②-|
⑤口口⑥ |③-④-|
③口口④ |⑤-⑥-|
①口口② |⑦-⑧-|
14
口①⑤口 |①-②-|
口②⑥口 |③-④-|
口③⑦口 |⑤-⑥-|
口④⑧口 |⑦-⑧-|
15
⑦口口⑧ |①-②-|
⑤口口⑥ |③-④-|
③口口④ |⑤-⑥-|
①口口② |⑦-⑧-|
16
口①⑤口 |①-②-|
口②⑥口 |③-④-|
口③⑦口 |⑤-⑥-|
口④⑧口 |⑦-⑧-|
17
口口口口 |①-②-|
⑤口口⑥ |③-④-|
③口口④ |⑤-⑥-|
①口口② |----|
18
口①⑤口 |①-②-|
口②⑥口 |③-④-|
口③⑦口 |⑤-⑥-|
口④⑧口 |⑦-⑧-|
19
⑦口口口 |①-②-|
⑤口口⑥ |③-④-|
③口口④ |⑤-⑥-|
①口口② |⑦---|
20
口①⑤口 |①-②-|
口②⑥口 |③-④-|
口③⑦口 |⑤-⑥-|
口④⑧口 |⑦-⑧-|
21
⑦口口口 |①-②-|
⑤口口⑥ |③-④-|
③口口④ |⑤-⑥-|
①口口② |⑦---|
22
口①⑤口 |①-②-|
口②⑥口 |③-④-|
口③⑦口 |⑤-⑥-|
口④⑧口 |⑦-⑧-|
23
⑦口口口 |①-②-|
⑤口口⑥ |③-④-|
③口口④ |⑤-⑥-|
①口口② |⑦---|
24
口①⑤口 |①-②-|
口②⑥口 |③-④-|
口③⑦口 |⑤-⑥-|
口④⑧口 |⑦-⑧-|
25
⑦口口口 |①-②-|
⑤口口⑥ |③-④-|
③口口④ |⑤-⑥-|
①口口② |⑦---|
26
口口口口 |①---|
口口口口 |--②-|
②口口③ |③---|
口①①口 |----|
27
口口口口 |①---|
口②②口 |----|
口①①口 |②---|
口口口口 |----|
28
①①①① |①-②-|
②口口② |--③-|
口③④口 |④---|
口⑤⑥口 |⑤-⑥-|
29
①②③口 |--①-|
④⑥⑦⑤ |②-③-|
口口口口 |④-⑤-|
口口口口 |⑥-⑦-|
30
口口口口 |①-②-|
口口口口 |--③-|
⑤②①口 |--④-|
③口口④ |--⑤-|
31
③④⑤口 |--①-|
②口口口 |--②-|
口口口① |--③-|
口口口口 |④-⑤-|
32
口口口① |①---|
口口口口 |②-③-|
口②③口
口口口口

口口口⑤
口口口口
口口口口 |----|
口④④口 |④-⑤-|
33
口①②口 |--①-|
口③④口 |②-③-|
口⑤⑥口 |④-⑤-|
口口口口 |⑥---|
34
口口口口 |①---|
④口口口 |--②-|
②口口③ |③---|
口①①口 |--④-|
35
口口口口 |①---|
口②②① |----|
口口口口 |②---|
口口口口 |----|
36
①①①① |①-②-|
口口口② |--③-|
③口口④ |④---|
⑤口口⑥ |⑤-⑥-|
37
口⑤②口 |--①-|
口①④口 |②---|
⑥③口口 |③-④-|
口口口口 |⑤-⑥-|
38
③口口⑥ |①-②-|
口口口② |③-④-|
口⑦口口 |⑤-⑥-|
④口①⑤ |--⑦-|
39
口口口口 |--①-|
口②①口 |--②-|
口口③口 |--③-|
口④⑤口 |④-⑤-|
40
口①①口 |--①-|
②口口③ |--②-|
④口口⑤ |③---|
口口口口 |④-⑤-|
41
③口口④ |--①-|
口口口口 |②---|
口口口⑤ |③-④-|
①口口② |--⑤-|
42
口口口口 |①-②-|
④口口⑤ |③-④-|
③②①口 |----|
口口口口 |--⑤-|
43
④口⑤⑥ |①-②-|
③②①口 |③-④-|
口口口口 |⑤-⑥-|
口⑦口口 |--⑦-|
44
口口口口 |①---|
⑤⑤口口 |②---|
②③④② |③-④-|
口口①口 |--⑤-|
45
口口①① |--①-|
口口②② |--②-|
口口口口 |----|
口③口口 |--③-|
46
口口口口 |①---|
⑤⑤口口 |②---|
②③④② |③-④-|
口口①口 |--⑤-|
47
口口①① |--①-|
口③②② |--②-|
口口④口 |----|
口口口口 |③-④-|
48
口口口口 |①---|
口口口口 |②-③-|
②④④③ |----|
口①口口 |④---|
49
口口口口 |①--②|
口③口口 |----|
口口④口 |③-④-|
①⑤口② |⑤---|
50
口口口口 |①---|
④④口口 |②-③-|
②①口③ |----|
口口口口 |④---|
51
②口口③ |--①-|
口口①① |----|
口口口口 |②--③|
口④口口 |--④-|
52
口口口口 |①---|
⑤⑤口口 |②---|
②③④② |③-④-|
口口①口 |--⑤-|
53
口口①① |--①-|
口口②③ |--②-|
口口口口 |③---|
口④口口 |--④-|
54
口口口口 |①---|
⑤⑤口口 |②---|
②③④② |③-④-|
口口①口 |--⑤-|
55
口口①① |--①-|
口口②③ |--②-|
口口口口 |③---|
④④口口 |④---|
56
口口口口 |①---|
口口口口 |--②-|
②③③② |----|
口口①① |③---|
57
口口口口 |①---|
①①②② |--②-|
口口口口 |----|
③口口③ |③---|
58
①②口口 |①---|
口①②口 |----|
①②口口 |②---|
口①②口 |----|
59
口口①口 |①---|
口口口① |----|
口口①口
口口口①

口口口口
口②③口
口④⑤口 |②-③-|
口口口口 |④-⑤-|
60
⑧⑧①⑤ |①-②-|
④口口口 |③-④-|
口口口② |⑤-⑥-|
⑦③口⑥ |⑦-⑧-|
61
口口口口 |--①-|
口口①① |--②-|
口②②口 |----|
口口口口 |----|
62
⑤①口⑧ |①-②-|
口口口④ |③-④-|
②口口口 |⑤-⑥-|
⑥口③⑦ |⑦-⑧-|
63
口口口口 |--①-|
口①口口 |--②-|
口口②口 |----|
口口口口 |----|
64
口②②口 |①---|
口①①口 |----|
③口口口 |②---|
口口口口 |--③-|
65
口口口口 |①-②-|
口口口口 |--③-|
口①②口 |--④-|
口⑤④③ |--⑤-|
66
口口口口 |--①-|
口口口口 |----|
②③口口 |----|
①口口口 |②-③-|
67
口⑦口口 |①-②-|
③④⑤⑥ |--③-|
口口①② |④-⑤-|
口口口口 |⑥-⑦-|
68
⑦口①④ |①-②-|
口口口口 |③---|
口口口② |④-⑤-|
⑥③口⑤ |⑥-⑦-|
69
口口④口 |--①-|
口口①口 |②-③-|
口③②口 |----|
口口口口 |--④-|
70
③①口⑥ |①---|
口口口口 |②---|
口口口口 |③-④-|
④口②⑤ |⑤-⑥-|
71
口口口口 |--①-|
口①口口 |②-③-|
⑤②③⑤ |--④-|
④口口④ |--⑤-|
72
口②②口 |①---|
口①①口 |----|
口口口口 |②---|
口口口口 |----|
73
口口口口 |①---|
口口口口 |--②-|
口口口口 |③---|
①②③① |----|
74
口口口口 |①---|
口口②② |----|
①①口口 |②---|
口口口口 |----|
75
①①口口 |①---|
口口口口 |----|
口口口口 |②---|
口口②② |----|
76
①①⑤口 |①-②-|
口②⑥口 |③-④-|
口③⑦口 |⑤-⑥-|
口④⑧口 |⑦-⑧-|
77
⑦口口⑧ |①-②-|
⑤口口⑥ |③-④-|
③口口④ |⑤-⑥-|
①口口② |⑦-⑧-|
78
口①⑤口 |①-②-|
口②⑥口 |③-④-|
口③⑦口 |⑤-⑥-|
口④⑧口 |⑦-⑧-|
79
⑦口口⑧ |①-②-|
⑤口口⑥ |③-④-|
③口口④ |⑤-⑥-|
①口口② |⑦-⑧-|
80
口①⑤口 |①-②-|
口②⑥口 |③-④-|
口③⑦口 |⑤-⑥-|
口④⑧口 |⑦-⑧-|
81
⑦口口⑧ |①-②-|
⑤口口⑥ |③-④-|
③口口④ |⑤-⑥-|
①口口② |⑦-⑧-|
82
口①⑤口 |①-②-|
口②⑥口 |③-④-|
口③⑦口 |⑤-⑥-|
口④⑧口 |⑦-⑧-|
83
⑦口口⑧ |①-②-|
⑤口口⑥ |③-④-|
③口口④ |⑤-⑥-|
①口口② |⑦-⑧-|
84
口口口口 |①---|
口①①口 |----|
口①①口 |----|
口口口口 |----|


不确定度: 0

最終更新:2012年11月23日 03:06