友達に贈る歌
Sonar Pocket

BASIC

Level: 4
BPM: 178
Notes: 240

1
口口口口 |----|
口口口口 |----|
口口口口 |----|
口口口口 |----|
2
口口口口 |①---|
口口口口 |----|
①口②口 |②---|
口口口口 |----|
3
口口口口 |①---|
①②③④ |②---|
口口口口 |③---|
口口口口 |④---|
4
口口口口 |①---|
口口口口 |----|
口①口② |②---|
口口口口 |----|
5
口口口口 |①---|
口口口口 |②---|
口口口口 |③---|
①②③④ |④---|
6
口口口口 |①---|
口口口口 |----|
①口②口 |②---|
口口口口 |----|
7
口口口口 |①---|
①②③④ |②---|
口口口口 |③---|
口口口口 |④---|
8
口口口口 |①---|
口口口口 |----|
口①口② |②---|
口口口口 |----|
9
口口口口 |①---|
口口口口 |②---|
口口口口 |③---|
①②③④ |④---|
10
口口口口 |①---|
口口口口 |----|
①口②口 |②---|
口口口口 |----|
11
口口口口 |①---|
口①②③ |②---|
口口口④ |③---|
口口口口 |④---|
12
口口口口 |①---|
口口口口 |----|
口①口口 |②---|
口口②口 |----|
13
口口口口 |①---|
①②③口 |②---|
口口口口 |③---|
口口口口 |----|
14
口③②① |①---|
口口口口 |②---|
口口口口 |③---|
口口口口 |----|
15
口口口口 |①---|
口口口口 |②---|
①②③口 |③---|
口口口口 |----|
16
口口口口 |①---|
口口口口 |②---|
口③④口 |③---|
口①②口 |④---|
17
口口口口 |①---|
①口口② |----|
口口口口 |②---|
口口口口 |----|
18
口②口① |①---|
口口口口 |----|
口口口口 |②---|
口口口口 |----|
19
口口口口 |①---|
①②③口 |②---|
口口口口 |③---|
口口口口 |----|
20
口口口口 |①---|
口口口口 |----|
口口口口 |②---|
口②口① |----|
21
口口口口 |①---|
口口口口 |②---|
①②③④ |③---|
口口口口 |④---|
22
口②口口 |①---|
口①口口 |----|
口口口口 |②---|
口口口口 |----|
23
①口口② |①---|
③口口口 |②---|
口口口口 |③---|
口口口口 |----|
24
口口口口 |①---|
口口口口 |----|
口口口口 |②---|
②①口口 |----|
25
口口口口 |①---|
口口口口 |②---|
③①②口 |③---|
口口口口 |----|
26
口口口口 |①---|
口口口口 |----|
口口口口 |②---|
口②①口 |----|
27
口口口口 |①---|
口②②口 |----|
口①①口 |②---|
口口口口 |----|
28
口口口口 |①---|
口口口口 |----|
②口口① |②---|
口口口口 |----|
29
②口口② |①---|
①口口① |----|
口口口口 |②---|
口口口口 |----|
30
口口口口 |①---|
口口口口 |----|
口口②口 |②---|
口①口口 |----|
31
口口②口 |①---|
口①口口 |----|
口口口口 |②---|
口口口口 |----|
32
口口口口 |①---|
④口口⑤ |②-③-|
口②③口 |--④-|
①口口① |--⑤-|
33
口口口口 |----|
口口口口 |----|
口口口口 |----|
口口口口 |----|
34
口口口口 |①---|
口口口口 |----|
口口口口 |----|
口①①口 |----|
35
口口口口 |①---|
①口口① |----|
①口口① |----|
口口口口 |----|
36
口①①口 |①---|
口口口口 |----|
口口口口 |----|
口口口口 |----|
37
口口口口 |①---|
①口口① |----|
①口口① |----|
口口口口 |----|
38
口口口口 |①---|
②口口① |----|
口口口口 |②---|
口口口口 |----|
39
口口口口 |①---|
口口口口 |----|
口②①口 |②---|
③口口③ |③---|
40
④口口⑤ |①---|
口②③口 |②-③-|
①口口① |--④-|
口口口口 |--⑤-|
41
口口口口 |----|
口口口口 |----|
口口口口 |----|
口口口口 |----|
42
口口口口 |①---|
口口口口 |----|
口口②口 |②---|
口口口① |----|
43
口口②② |①---|
口口①① |----|
口口口口 |②---|
口口口口 |----|
44
口口口口 |①---|
口口口口 |----|
口②口口 |②---|
①口口口 |----|
45
②②口口 |①---|
①①口口 |----|
口口口口 |②---|
口口口口 |----|
46
口口口口 |①---|
口口口口 |----|
口口②① |②---|
口口口口 |----|
47
口口口口 |①---|
口口口口 |----|
①②口口 |②---|
口口口口 |----|
48
口口口口 |①---|
口①①口 |----|
口口口口 |----|
口口口口 |----|
49
口①①口 |①---|
口口口口 |----|
口口口口 |----|
口口口口 |----|
50
口口口口 |①---|
口口口口 |----|
口口②口 |②---|
口口口① |----|
51
口口②② |①---|
口口①① |----|
口口口口 |②---|
口口口口 |----|
52
口口口口 |①---|
口口口口 |----|
口②口口 |②---|
①口口口 |----|
53
②②口口 |①---|
①①口口 |----|
口口口口 |②---|
口口口口 |----|
54
口口口口 |①---|
口口口口 |----|
口②①口 |②---|
口口口口 |----|
55
口口口口 |----|
①②③口 |①---|
口口口口 |②---|
口口口口 |③---|
56
④②③口 |①---|
口口口① |②---|
口口口口 |③---|
口口口口 |④---|
57
口口口① |①---|
口口口口 |----|
口口口口 |----|
口口口口 |----|
58
口口口口 |①---|
口②口口 |----|
口①①口 |----|
口口口口 |②---|
59
口②③口 |①---|
①口口④ |②---|
口口口口 |③---|
口口口口 |④---|
60
口口口口 |①---|
口口口口 |----|
口①②口 |②---|
口口口口 |----|
61
口口口口 |----|
口口口口 |----|
口口口口 |----|
口口口口 |----|
62
口口口口 |①---|
口②口口 |----|
口①①口 |----|
口口口口 |②---|
63
口口口口 |①---|
口口口口 |②---|
①口口④ |③---|
口②③口 |④---|
64
口口口口 |①---|
口口口口 |----|
口①②口 |②---|
口口口口 |----|
65
口口口口 |----|
口口口口 |----|
口口口口 |----|
口口口口 |----|
66
口口口口 |①---|
口①①口 |----|
口②口口 |----|
口口口口 |②---|
67
口②③口 |①---|
①口口④ |②---|
口口口口 |③---|
口口口口 |④---|
68
口口口口 |①---|
口口口口 |----|
口①②口 |②---|
口口口口 |----|
69
口口口口 |----|
口口口口 |----|
口口口口 |----|
口口口口 |----|
70
口口口口 |①---|
口②口口 |----|
口①①口 |----|
口口口口 |②---|
71
口口口口 |①---|
口口口口 |②---|
①口口④ |③---|
口②③口 |④---|
72
口口口口 |①---|
口口口口 |----|
口①②口 |②---|
口口口口 |----|
73
口①①口 |①---|
口口口口 |----|
口口口口 |②---|
口②②口 |----|
74
口口口口 |①---|
口①①口 |----|
口②口口 |----|
口口口口 |②---|
75
口②③口 |①---|
①口口④ |②---|
口口口口 |③---|
口口口口 |④---|
76
口口口口 |①---|
口口口口 |----|
口①②口 |②---|
口口口口 |----|
77
口口口口 |----|
口口口口 |----|
口口口口 |----|
口口口口 |----|
78
口口口口 |①---|
口②口口 |----|
口①①口 |----|
口口口口 |②---|
79
口口口口 |①---|
口口口口 |②---|
①口口④ |③---|
口②③口 |④---|
80
口口口口 |①---|
口口口口 |----|
口①②口 |②---|
口口口口 |----|
81
口①①口 |①---|
口口口口 |----|
口口口口 |②---|
口②②口 |----|
82
口口口口 |①---|
口①①口 |----|
口②口口 |----|
口口口口 |②---|
83
口②③口 |①---|
①口口④ |②---|
口口口口 |③---|
口口口口 |④---|
84
口口口口 |①---|
口口口口 |----|
口①②口 |②---|
口口口口 |----|
85
口口口口 |----|
口口口口 |----|
口口口口 |----|
口口口口 |----|
86
口口口口 |①---|
口②口口 |----|
口①①口 |----|
口口口口 |②---|
87
口口口口 |①---|
口口口口 |②---|
①口口④ |③---|
口②③口 |④---|
88
口口口口 |①---|
口口口口 |----|
口①②口 |②---|
口口口口 |----|
89
口①①口 |①---|
口②②口 |----|
口口口口 |②---|
口口口口 |----|


不确定度: 0

最終更新:2012年11月23日 03:06