友達に贈る歌
Sonar Pocket

ADVANCED

Level: 6
BPM: 178
Notes: 444

1
口口口口 |----|
口口口口 |----|
口口口口 |----|
口口口口 |----|
2
口口口口 |①-②-|
口①②口 |③-④-|
③⑥口④ |--⑤-|
口⑤口口 |--⑥-|
3
口口口口 |--①-|
口口口口 |--②-|
口口①口 |--③-|
口③②口 |----|
4
口口①口 |①-②-|
口①②口 |③-④-|
③⑥口④ |--⑤-|
口⑤口口 |--⑥-|
5
口口④口 |--①-|
口口口口 |--②-|
口口①口 |--③-|
口③②口 |--④-|
6
口口口口 |①-②-|
口①②口 |③-④-|
③⑥口④ |--⑤-|
口⑤口口 |--⑥-|
7
口口④口 |--①-|
口口口口 |--②-|
口口①口 |--③-|
口③②口 |--④-|
8
口口口口 |①-②-|
口①②口 |③-④-|
③口口④ |--⑤-|
口⑤口口 |----|
9
①口口② |①-②-|
口口口口 |--③-|
口③④口 |----|
口口口口 |④---|
10
口口口口 |①---|
口⑦口口 |②-③-|
①⑤⑥① |④-⑤-|
②③④口 |⑥-⑦-|
11
④②③⑤ |①-②-|
口口①口 |③-④-|
口口口口 |⑤---|
⑥口口口 |⑥---|
12
口口口口 |①---|
口⑥⑦口 |②-③-|
口④⑤口 |④-⑤-|
口②③① |⑥-⑦-|
13
③口口④ |--①-|
①口口② |②-③-|
口口口口 |④---|
⑤口口口 |--⑤-|
14
口口口口 |①-②-|
④⑤口口 |③-④-|
②③口口 |⑤---|
口①⑥⑦ |⑥-⑦-|
15
口口⑤口 |①-②-|
口口③④ |③-④-|
口口①② |⑤---|
口⑥口口 |--⑥-|
16
⑦⑤⑥口 |①-②-|
口④口口 |③-④-|
口②③口 |--⑤-|
口口①口 |⑥-⑦-|
17
口口口① |①---|
②口口③ |--②-|
口口口口 |③---|
④口口口 |--④-|
18
口口口口 |①-②-|
④口口⑤ |③-④-|
②口口③ |⑤---|
口⑥⑦① |⑥-⑦-|
19
口⑤口口 |①-②-|
口③④口 |③-④-|
口①②口 |⑤---|
⑥口口口 |--⑥-|
20
⑥⑧⑦口 |①-②-|
④口⑤口 |③-④-|
②口③口 |⑤-⑥-|
口口①口 |⑦-⑧-|
21
口口口① |①-②-|
口②口口 |--③-|
口③口④ |④---|
口⑤口⑥ |⑤-⑥-|
22
⑤③⑥④ |--①-|
⑦①口② |②-③-|
口口口口 |④-⑤-|
口口口口 |⑥-⑦-|
23
口口口口 |①-②-|
口⑥①口 |③-④-|
②口③口 |⑤---|
④口⑤口 |--⑥-|
24
④②⑤③ |①-②-|
⑥口⑦① |③-④-|
⑧口口口 |⑤-⑥-|
口口口口 |⑦-⑧-|
25
口口口口 |--①-|
口口口口 |--②-|
④口口口 |③---|
①口②③ |--④-|
26
口口口口 |①-②-|
口口口④ |③-④-|
⑦①②③ |--⑤-|
⑤⑥口口 |⑥-⑦-|
27
③④口口 |①-②-|
②口口口 |--③-|
口①口口 |④---|
口⑤⑥口 |⑤-⑥-|
28
⑦⑤⑥口 |①-②-|
口③④口 |③-④-|
口①②口 |⑤-⑥-|
口口口口 |⑦---|
29
口口口口 |①-②-|
①⑦口② |--③-|
口⑤⑥口 |④-⑤-|
③口口④ |⑥-⑦-|
30
①口②③ |①---|
⑥⑤口④ |②-③-|
口口口口 |④---|
口口口口 |⑤-⑥-|
31
口口口口 |①---|
口口口口 |②-③-|
①口②③ |④---|
⑥⑤口④ |⑤-⑥-|
32
口⑤⑤口 |①---|
口④④口 |②-③-|
①口②③ |--④-|
口口口口 |--⑤-|
33
口口口口 |----|
口口口口 |----|
口口口口 |----|
口①口口 |--①-|
34
口口口口 |①---|
口④口口 |②-③-|
⑤②③⑤ |--④-|
口口①口 |--⑤-|
35
②口口② |--①-|
①口口① |--②-|
口口口口 |----|
口③口口 |--③-|
36
口口口口 |①---|
口④口口 |②-③-|
⑤②③⑤ |--④-|
口口①口 |--⑤-|
37
②口口② |--①-|
①口口① |--②-|
口口口口 |----|
口口③④ |③-④-|
38
口口口口 |----|
口口口口 |①-②-|
口口③④ |----|
①②口口 |③-④-|
39
口口口口 |----|
③口口口 |①-②-|
①②口口 |----|
口口口口 |③---|
40
口②③口 |①---|
口口口① |②-③-|
④口口⑤ |--④-|
口口口口 |--⑤-|
41
口口口口 |----|
口口口口 |----|
口口口口 |----|
口①口口 |--①-|
42
⑧⑥⑦口 |①-②-|
口④⑤口 |③-④-|
口②③口 |⑤-⑥-|
口口①口 |⑦-⑧-|
43
口口口① |①-②-|
②口口③ |③-④-|
④口口⑤ |⑤---|
口⑥口口 |--⑥-|
44
⑧⑥⑦口 |①-②-|
口④⑤口 |③-④-|
口②③口 |⑤-⑥-|
口口①口 |⑦-⑧-|
45
口口口① |①-②-|
②口口③ |③-④-|
④口口⑤ |⑤---|
口⑥口口 |--⑥-|
46
口口口口 |①-②-|
口④⑤口 |③-④-|
口②③口 |⑤---|
⑥口①⑦ |⑥-⑦-|
47
⑤口口口 |①-②-|
③口口④ |③-④-|
①口口② |⑤---|
口⑥⑦口 |⑥-⑦-|
48
③④⑤口 |--①-|
①口口② |--②-|
口口口口 |--③-|
口口口口 |④-⑤-|
49
口口口口 |----|
口口口口 |----|
口口口口 |----|
口①口口 |--①-|
50
⑧⑥⑦口 |①-②-|
口④⑤口 |③-④-|
口②③口 |⑤-⑥-|
口口①口 |⑦-⑧-|
51
口口口① |①-②-|
②口口③ |③-④-|
④口口⑤ |⑤---|
口⑥口口 |--⑥-|
52
⑧⑥⑦口 |①-②-|
口④⑤口 |③-④-|
口②③口 |⑤-⑥-|
口口①口 |⑦-⑧-|
53
口口口① |①-②-|
②口口③ |③-④-|
④口口⑤ |⑤---|
口⑥口口 |--⑥-|
54
口口口口 |①---|
口口口口 |②-③-|
②③④口 |④---|
口口①口 |----|
55
口口口口 |----|
口口口③ |①---|
②口口口 |②---|
口口口① |③---|
56
口④④口 |①---|
口③③口 |②---|
口②②口 |③---|
口①①口 |④---|
57
①口口① |①---|
口口口口 |----|
口③口口 |----|
口口②口 |②-③-|
58
口口口口 |①---|
口口①口 |----|
口口③口 |----|
口②口口 |②-③-|
59
口口口口 |①---|
④①口口 |②---|
②口口③ |③---|
口口口口 |④---|
60
②②口口 |①---|
口①口③ |--②-|
口口口口 |----|
口口口口 |③---|
61
口口②② |①---|
口口①口 |--②-|
④口口口 |----|
口口口③ |③-④-|
62
口口口口 |①---|
口口口① |----|
口口口③ |----|
②口口口 |②-③-|
63
口口口口 |①---|
①④口口 |②---|
口②③口 |③---|
口口口口 |④---|
64
②口口③ |①---|
口口①口 |--②-|
口口口口 |③---|
口口口口 |----|
65
口口口口 |----|
口口口口 |----|
口②口口 |----|
口口①口 |①-②-|
66
口口口口 |①---|
口口①口 |----|
口口③口 |----|
口②口口 |②-③-|
67
口口口口 |①---|
④①口口 |②---|
②口口③ |③---|
口口口口 |④---|
68
②②口口 |①---|
口①口③ |--②-|
口口口口 |----|
口口口口 |③---|
69
口口②② |①---|
口口①口 |--②-|
④口口口 |----|
口口口③ |③-④-|
70
口口口口 |①---|
口口口① |----|
口口口③ |----|
②口口口 |②-③-|
71
口口口口 |①---|
①④口口 |②---|
口②③口 |③---|
口口口口 |④---|
72
②口④③ |①---|
口口①口 |--②-|
口口口口 |③---|
口口口口 |④---|
73
口口口口 |①-②-|
①口口② |--③-|
③⑥口④ |--④-|
口口⑤口 |⑤-⑥-|
74
口口口口 |①---|
口口①口 |----|
口口③口 |----|
口②口口 |②-③-|
75
口口口口 |①---|
④①口口 |②---|
②口口③ |③---|
口口口口 |④---|
76
②②口口 |①---|
口①口③ |--②-|
口口口口 |----|
口口口口 |③---|
77
口口②② |①---|
口口①口 |--②-|
④口口口 |----|
口口口③ |③-④-|
78
口口口口 |①---|
口口口① |----|
口口口③ |----|
②口口口 |②-③-|
79
口口口口 |①---|
①④口口 |②---|
口②③口 |③---|
口口口口 |④---|
80
②口④③ |①---|
口口①口 |--②-|
口口口口 |③---|
口口口口 |④---|
81
口口口口 |①-②-|
①口口② |--③-|
③⑥口④ |--④-|
口口⑤口 |⑤-⑥-|
82
口口口口 |①---|
口口①口 |----|
口口③口 |----|
口②口口 |②-③-|
83
口口口口 |①---|
④①口口 |②---|
②口口③ |③---|
口口口口 |④---|
84
②②口口 |①---|
口①口③ |--②-|
口口口口 |----|
口口口口 |③---|
85
口口②② |①---|
口口①口 |--②-|
④口口口 |----|
口口口③ |③-④-|
86
口口口口 |①---|
口口口① |----|
口口口③ |----|
②口口口 |②-③-|
87
口口口口 |①---|
①④口口 |②---|
口②③口 |③---|
口口口口 |④---|
88
②口④③ |①---|
口口①口 |--②-|
口口口口 |③---|
口口口口 |④---|
89
口口口口 |①-②-|
①口口② |--③-|
③口口④ |--④-|
口口口口 |----|


不确定度: 0

最終更新:2012年11月23日 03:06