友達に贈る歌
Sonar Pocket

EXTREME

Level: 7
BPM: 178
Notes: 640

1
口口口口 |----|
口口口口 |----|
口口口口 |----|
口口口口 |----|
2
口口口口 |①-②-|
口口口口 |③-④-|
⑥③④⑥ |--⑤-|
⑤①②⑤ |--⑥-|
3
②口口② |--①-|
①③③① |--②-|
④口口④ |--③-|
口口口口 |--④-|
4
口口口口 |①-②-|
口口口口 |③-④-|
⑥③④⑥ |--⑤-|
⑤①②⑤ |--⑥-|
5
②口口② |--①-|
①③③① |--②-|
④口口④ |--③-|
口口口口 |--④-|
6
口口口口 |①-②-|
口口口口 |③-④-|
⑥③④⑥ |--⑤-|
⑤①②⑤ |--⑥-|
7
②口口② |--①-|
①③③① |--②-|
④口口④ |--③-|
口口口口 |--④-|
8
口口口口 |①-②-|
口口口口 |③-④-|
口③④口 |--⑤-|
⑤①②⑤ |----|
9
口口口口 |①-②-|
①口口② |--③-|
口口口口 |----|
④③③④ |④---|
10
口①口① |①---|
口①①① |②-③-|
②①口①
口③口口

口口口口
口口口口
口⑦④口 |④-⑤-|
⑥口口⑤ |⑥-⑦-|
11
①⑥②⑥ |①-②-|
口⑥⑥⑥ |③-④-|
③⑥④⑥ |⑤---|
口⑤口口 |⑥---|
12
③口口口 |①---|
口口口口 |②-③-|
口口口口
①口②口

口口④口
口口口口
⑤口口口 |④-⑤-|
⑦口口⑥ |⑥-⑦-|
13
口口口口 |--①-|
口口口⑤ |②-③-|
口①②口 |④---|
口③④口 |--⑤-|
14
①③④② |①-②-|
口⑤口口 |③-④-|
口口口口 |⑤---|
⑥口口⑦ |⑥-⑦-|
15
口口口口 |①-②-|
口口口⑥ |③-④-|
①③④② |⑤---|
口⑤口口 |--⑥-|
16
①口口② |①-②-|
③④④口 |③-④-|
⑤口口⑥ |--⑤-|
⑦口口口 |⑥-⑦-|
17
③②②③ |①---|
④口口口 |--②-|
口口口口 |③---|
口口口① |--④-|
18
口口口口 |①-②-|
口②③① |③-④-|
④口口口 |⑤---|
口⑦⑥⑤ |⑥-⑦-|
19
口口口口 |①-②-|
口⑥口口 |③-④-|
③②①⑤ |⑤---|
口口口④ |--⑥-|
20
口口口口 |①-②-|
口口①口 |③-④-|
②⑥⑦⑤ |⑤-⑥-|
④⑧口③ |⑦-⑧-|
21
⑥口口⑤ |①-②-|
③口口④ |--③-|
②口口口 |④---|
口口①口 |⑤-⑥-|
22
口口口口 |--①-|
口口口口 |②-③-|
②⑥口④ |④-⑤-|
①⑤⑦③ |⑥-⑦-|
23
口口口口 |①-②-|
②③④⑤ |③-④-|
口口①口 |⑤---|
⑥口口口 |--⑥-|
24
口口口口 |①-②-|
口⑧⑧口 |③-④-|
①⑤⑦③ |⑤-⑥-|
口④⑥② |⑦-⑧-|
25
口②③口 |--①-|
①口口① |--②-|
口口口口 |③---|
④⑤口口 |--④⑤|
26
②⑥⑥③ |①-②-|
⑥口口⑥ |③-④-|
④⑥⑥口 |--⑤-|
口口①⑤ |⑥---|
27
⑤口口⑥ |①-②-|
口①②口 |--③-|
口口口口 |④---|
口③④口 |⑤-⑥-|
28
口口⑦口 |①-②-|
①⑦⑦② |③-④-|
③口⑦④ |⑤-⑥-|
⑤口⑦⑥ |⑦---|
29
①⑥口② |①-②-|
⑤口⑦口 |--③-|
口口口口 |④-⑤-|
③口口④ |⑥-⑦-|
30
口口口④ |①---|
口②口① |②-③-|
⑤口③⑥ |④---|
口口口口 |⑤-⑥-|
31
③①①③ |①---|
口④口① |②---|
⑤口②口 |③---|
口②②② |④-⑤-|
32
⑤口口⑤ |①---|
④口③④ |②-③-|
口②口① |--④-|
口口口口 |--⑤-|
33
口口口口 |----|
口③口口 |①---|
①口口② |②---|
①口口② |--③-|
34
④⑤口口 |①---|
口口③口 |②-③-|
口②①口 |--④-|
口口⑤④ |--⑤-|
35
口口①② |--①-|
口③口口 |--②-|
口口口口 |----|
②①口口 |--③-|
36
④⑤口口 |①---|
口口③口 |②-③-|
口②①口 |--④-|
口口⑤④ |--⑤-|
37
口口①② |--①-|
③③口口 |--②-|
口口④④ |----|
②①口口 |③-④-|
38
口口③③ |----|
口口②② |①-②-|
①①口口 |----|
口口④④ |③-④-|
39
②②③口 |----|
口③③口 |①-②-|
口口③口 |----|
①①③口 |③---|
40
口⑤⑤① |①---|
口④④口 |②-③-|
②口口③ |--④-|
口口口口 |--⑤-|
41
口口口口 |----|
口口口口 |----|
①口口口 |----|
口口口口 |--①-|
42
口口口口 |①-②-|
口口口口 |③-④-|
⑧①②③ |⑤-⑥-|
④⑥⑦⑤ |⑦-⑧-|
43
⑥口口口 |①-②-|
口口口口 |③-④-|
口①②③ |⑤---|
④口口⑤ |--⑥-|
44
⑧①②③ |①-②-|
④⑥⑦⑤ |③-④-|
口口口口 |⑤-⑥-|
口口口口 |⑦-⑧-|
45
口①②③ |①-②-|
④口口⑤ |③-④-|
口口口口 |⑤---|
口口口⑥ |--⑥-|
46
口口口⑥ |①-②-|
口口口⑦ |③-④-|
④②①口 |⑤---|
③⑤⑤口 |⑥-⑦-|
47
④②①口 |①-②-|
③⑤⑤口 |③-④-|
口⑥⑦口 |⑤---|
口口口口 |⑥-⑦-|
48
②口口② |--①-|
①⑤⑤① |--②-|
③口口④ |--③-|
口口口口 |④-⑤-|
49
口口口口 |----|
口口口口 |----|
口口口口 |----|
①②口口 |--①②|
50
口口口⑧ |①-②-|
⑥口口⑦ |③-④-|
④②③⑤ |⑤-⑥-|
口口①口 |⑦-⑧-|
51
③②①口 |①-②-|
口口口口 |③-④-|
口④口口
口口口口

口口⑦⑥
口口口口
口口⑤口 |⑤---|
口口口口 |--⑥⑦|
52
口①口口 |①-②-|
⑤③②④ |③-④-|
⑦口口⑥ |⑤-⑥-|
⑧口口口 |⑦-⑧-|
53
口口口口 |①-②-|
⑥⑤④口 |③-④-|
口口口口 |⑤---|
口①②③ |--⑥-|
54
口口口口 |①---|
口口口① |②-③-|
口②③④ |④---|
口口口口 |----|
55
口③③口 |----|
口②②口 |①---|
口①①口 |②---|
口④④口 |③-④-|
56
④口口④ |①---|
③口口③ |②---|
②口口② |③---|
①口口① |④---|
57
口②②口 |①-②-|
口①①③ |--③-|
口①①口
口口口口

口口口口
口口口口
④口⑥⑥ |④---|
⑤⑤口口 |⑤-⑥-|
58
口口口口 |①---|
①①口口 |----|
③③口口 |----|
口口②② |②-③-|
59
③②②③ |①---|
口口①① |②---|
口口口口 |③---|
口④④口 |④---|
60
口口口口 |①---|
②口口② |--②-|
口①①口 |----|
③口口③ |③---|
61
口②②口 |①---|
口口口口 |--②-|
①④④① |----|
③口口③ |③-④-|
62
口口口口 |①---|
①口口① |----|
③口口③ |----|
口②②口 |②-③-|
63
②②③③ |①---|
口①①口 |②---|
口口口口 |③---|
口④④口 |④---|
64
口口口口 |①---|
②③③② |--②-|
口①①口 |③---|
口口口口 |----|
65
口口口口 |----|
口口口口 |----|
口口②② |----|
①①口口 |①-②-|
66
口口口口 |①---|
①①口口 |----|
③③口口 |----|
口口②② |②-③-|
67
③②②③ |①---|
口口①① |②---|
口口口口 |③---|
口④④口 |④---|
68
口口口口 |①---|
②口口② |--②-|
口①①口 |----|
③口口③ |③---|
69
口②②口 |①---|
口口口口 |--②-|
①④④① |----|
③口口③ |③-④-|
70
口口口口 |①---|
①口口① |----|
③口口③ |----|
口②②口 |②-③-|
71
②②③③ |①---|
口①①口 |②---|
口口口口 |③---|
口④④口 |④---|
72
口口口口 |①---|
②③③② |--②-|
口①①口 |③---|
④口口④ |④---|
73
③①②③ |①-②-|
口口④④ |--③-|
口口⑥⑥ |--④-|
⑤⑤口口 |⑤-⑥-|
74
口口口口 |①---|
①①口口 |----|
③③口口 |----|
口口②② |②-③-|
75
③②②③ |①---|
口口①① |②---|
口口口口 |③---|
口④④口 |④---|
76
口口口口 |①---|
②口口② |--②-|
口①①口 |----|
③口口③ |③---|
77
口②②口 |①---|
口口口口 |--②-|
①④④① |----|
③口口③ |③-④-|
78
口口口口 |①---|
①口口① |----|
③口口③ |----|
口②②口 |②-③-|
79
②②③③ |①---|
口①①口 |②---|
口口口口 |③---|
口④④口 |④---|
80
口口口口 |①---|
②③③② |--②-|
口①①口 |③---|
④口口④ |④---|
81
③①②③ |①-②-|
口口④④ |--③-|
口口⑥⑥ |--④-|
⑤⑤口口 |⑤-⑥-|
82
口口口口 |①---|
①①口口 |----|
③③口口 |----|
口口②② |②-③-|
83
③②②③ |①---|
口口①① |②---|
口口口口 |③---|
口④④口 |④---|
84
口口口口 |①---|
②口口② |--②-|
口①①口 |----|
③口口③ |③---|
85
口②②口 |①---|
口口口口 |--②-|
①④④① |----|
③口口③ |③-④-|
86
口口口口 |①---|
①口口① |----|
③口口③ |----|
口②②口 |②-③-|
87
②②③③ |①---|
口①①口 |②---|
口口口口 |③---|
口④④口 |④---|
88
口口口口 |①---|
②③③② |--②-|
口①①口 |③---|
④口口④ |④---|
89
④①②④ |①-②-|
④口口④ |--③-|
③口口③ |--④-|
口口口口 |----|


不确定度: 0

最終更新:2012年11月23日 03:06