素直になれたら

BASIC

Level: 1
BPM: 98
Notes: 141

1
口口口口 |----|
口口口口 |----|
口口口口 |----|
口口口口 |----|
2
口口口口 |①---|
口①②口 |②---|
口口口口 |----|
口口口口 |----|
3
口口口口 |①---|
口口口口 |②---|
口①①口 |----|
口②②口 |----|
4
口口口口 |①---|
口①②口 |--②-|
口口口口 |----|
口口口口 |----|
5
口口口口 |①---|
①口口① |----|
口②②口 |②---|
口口口口 |----|
6
口口口口 |①---|
口口口口 |②---|
口口口口 |----|
口①②口 |----|
7
口口口口 |①---|
口口口口 |②---|
①口口② |----|
口口口口 |----|
8
口②②口 |①---|
口①①口 |②---|
口③口口 |----|
口口口口 |③---|
9
口口口口 |①---|
口口口口 |----|
口口①口 |----|
口口口口 |----|
10
①口口② |①---|
口口口口 |----|
口口口口 |②---|
口口口口 |----|
11
口口口口 |①---|
口①①口 |②---|
口②②口 |③---|
口③③口 |----|
12
口口口口 |①---|
口口口口 |----|
口口口口 |②---|
①口口② |----|
13
口③③口 |①---|
口②②口 |②---|
口①①口 |③---|
口口口口 |----|
14
口口口口 |①---|
口口口口 |②---|
口③口④ |③---|
口①口② |④---|
15
口③口④ |①---|
口①口② |②---|
口口口口 |③---|
口口口口 |④---|
16
口口①口 |①---|
口口②口 |②---|
口口③口 |③---|
口口④口 |④---|
17
口口口口 |①---|
口④④口 |②---|
口③③口 |③---|
①口口② |④---|
18
口口②① |①---|
口口口口 |----|
口口口口 |②---|
口口口口 |----|
19
口口口口 |①---|
口口口口 |----|
口口②① |②---|
口口口口 |----|
20
口口口口 |①---|
口口口口 |----|
口口口口 |②---|
①②口口 |----|
21
口口口口 |①---|
①②口口 |----|
口口口口 |②---|
口口口口 |----|
22
口口口口 |①---|
口口口口 |----|
口①②口 |②---|
口口口口 |----|
23
口口口口 |①---|
①口口① |----|
②口口② |②---|
口口口口 |----|
24
口口口口 |①---|
口口口口 |②---|
①②③④ |③---|
口口口口 |④---|
25
口口口口 |①---|
④③②① |②---|
口口口口 |③---|
口口口口 |④---|
26
口①②口 |①---|
口口口口 |----|
口口口口 |②---|
口口口口 |----|
27
口口口口 |①---|
口口口口 |----|
口①②口 |②---|
口口口口 |----|
28
口口口口 |①---|
口口口口 |----|
②口口口 |②---|
①口口口 |----|
29
口口口口 |①---|
口口口口 |----|
口口口② |②---|
口口口① |----|
30
口口口口 |①---|
口②②口 |----|
口口口口 |②---|
口①①口 |----|
31
口口口口 |①---|
②口口② |----|
①口口① |②---|
口口口口 |----|
32
口口口口 |①---|
口口口口 |----|
口口②口 |②---|
口①口口 |----|
33
口②口口 |①---|
口①①口 |②---|
口口口口
口口口口

口口口口
④④④④
③③③③ |③---|
口口口口 |④---|
34
①口口② |①---|
口口口口 |----|
口口口口 |②---|
口口口口 |----|
35
口口口口 |①---|
口①①口 |②---|
口②②口 |③---|
口③③口 |----|
36
口口口口 |①---|
口口口口 |----|
口口口口 |②---|
①口口② |----|
37
口③③口 |①---|
口②②口 |②---|
口①①口 |③---|
口口口口 |----|
38
口口口口 |①---|
口口口口 |②---|
口③口④ |③---|
口①口② |④---|
39
口③口④ |①---|
口①口② |②---|
口口口口 |③---|
口口口口 |④---|
40
口口①口 |①---|
口口②口 |②---|
口口③口 |③---|
口口④口 |④---|
41
口口口口 |①---|
口④④口 |②---|
口③③口 |③---|
①口口② |④---|


不确定度: 0

最終更新:2012年11月23日 03:05