素直になれたら

ADVANCED

Level: 4
BPM: 98
Notes: 264

1
口口口口 |----|
口口口口 |----|
口口口口 |----|
口口口口 |----|
2
口口口口 |①-②-|
③②②③ |③-④-|
④①①④ |----|
口口⑤口 |⑤---|
3
口口口口 |①-②-|
③②口口 |③-④-|
④①口口
口口口口

口⑤口口
口⑥口口
口口口口 |----|
口口口口 |⑤-⑥-|
4
③口口③ |①---|
口口口① |--②-|
口口口口 |----|
口口口② |--③-|
5
口①①口 |①--②|
③②②③ |--③-|
④口口④ |④--⑤|
口⑤⑤口 |----|
6
口口口口 |①-②-|
③②②③ |③-④-|
④①①④ |----|
口⑤口口 |⑤---|
7
口口口口 |①-②-|
口口②③ |③-④-|
口口①④
口口口口

口口口口
口口口口
口⑤⑤口 |----|
口⑥⑥口 |⑤-⑥-|
8
②口口② |①---|
口口口口 |②---|
①口口①
口口口口

口口口口
口口口口
③④④③ |----|
口口口口 |③-④-|
9
口口口口 |①---|
②①①② |----|
口口口口 |②---|
口口口口 |----|
10
①口口② |①---|
①口口② |----|
口口口口 |②---|
口口口口 |----|
11
①①①① |①---|
②②②② |②---|
③③③③ |③-④-|
口④④口 |----|
12
口口口口 |①---|
口口口口 |----|
②口口① |②---|
②口口① |----|
13
口口口口 |①---|
口③③口 |②---|
②②②② |③---|
①①①① |----|
14
①口口② |①---|
③口口④ |②---|
口口口口 |③---|
口口口口 |④---|
15
口①①口 |①---|
口②②口 |②---|
口③③口 |③---|
口④④口 |④---|
16
口口口口 |①---|
④口口④ |②---|
②③③② |③---|
①口口① |④---|
17
口①②口 |①②-③|
③⑩⑩④ |④-⑤⑥|
口⑤⑥口 |-⑦⑧-|
⑦⑨⑨⑧ |⑨⑩--|
18
口口口口 |①---|
口口口口 |----|
口①①口
口口口口

口口口口
②口口口
口②口口 |②---|
口口口口 |----|
19
口口口口 |①---|
口②②① |----|
口口①口 |②---|
口口口口 |----|
20
①口口② |①---|
口①②口 |----|
口口口口 |②---|
口口口口 |----|
21
口①①口 |①---|
口②②口 |②---|
口③③口 |③---|
口口口口 |----|
22
口口口口 |①---|
口口口口 |----|
①口口② |②---|
口①②口 |----|
23
①口口① |①---|
②口口② |②---|
③口口③ |③---|
口口口口 |----|
24
④口口口 |①---|
口口口口 |②---|
口③口口 |③---|
①②口口 |④---|
25
口口口④ |①---|
口口口口 |②---|
口口③口 |③---|
口口②① |④---|
26
口口口口 |①---|
口口口口 |----|
①①②② |②---|
口口口口 |----|
27
口口口口 |①---|
③③口口 |②---|
②②口口 |③---|
①①口口 |----|
28
口口口口 |①---|
口口口口 |----|
②②①① |②---|
口口口口 |----|
29
口口口口 |①---|
口口③③ |②---|
口口②② |③---|
口口①① |----|
30
口①①口 |①---|
②口口② |----|
口口口口 |②---|
口口口口 |----|
31
口口口口 |①---|
口①①口 |②---|
口②②口 |③---|
口③③口 |----|
32
口口口④ |①---|
②口口口 |②---|
口口口③ |③---|
①口口口 |④---|
33
口口口口 |①---|
口④④口 |②---|
②③③② |③---|
①口口① |④---|
34
①口口② |①---|
①口口② |----|
口口口口 |②---|
口口口口 |----|
35
①①①① |①---|
②②②② |②---|
③③③③ |③-④-|
口④④口 |----|
36
口口口口 |①---|
口口口口 |----|
②口口① |②---|
②口口① |----|
37
口口口口 |①---|
口③③口 |②---|
②②②② |③---|
①①①① |----|
38
①口口② |①---|
③口口④ |②---|
口口口口 |③---|
口口口口 |④---|
39
口①①口 |①---|
口②②口 |②---|
口③③口 |③---|
口④④口 |④---|
40
口口口口 |①---|
④口口④ |②---|
②③③② |③---|
①口口① |④---|
41
口①②口 |①②-③|
③⑩⑩④ |④-⑤⑥|
口⑤⑥口 |-⑦⑧-|
⑦⑨⑨⑧ |⑨⑩--|


不确定度: 0

最終更新:2012年11月23日 03:05