素直になれたら

EXTREME

Level: 6
BPM: 98
Notes: 456

1
口口口口 |----|
口口口口 |----|
口口口口 |----|
口口口口 |----|
2
口口口口 |①-②-|
③②②③ |③-④-|
④①①④ |----|
口⑤⑤口 |⑤---|
3
口①①口 |①-②-|
②口口② |③-④-|
③口口③
④口口④

口⑤口口
口⑥⑥口
口口口口 |----|
口口口口 |⑤-⑥-|
4
③②②③ |①---|
①②②① |--②-|
口口口口 |----|
口口口口 |--③-|
5
口①①口 |①--②|
③②②③ |--③-|
④④④④ |④--⑤|
⑤⑤⑤⑤ |----|
6
口口口口 |①-②-|
③②②③ |③-④-|
④①①④ |----|
口⑤⑤口 |⑤---|
7
口①①口 |①-②-|
②口口② |③-④-|
③⑤⑤③ |----|
④⑥⑥④ |⑤-⑥-|
8
口①②口 |①---|
②口口① |②---|
口口口口
口口口口

③口口③
④口口④
口口口口 |----|
口口口口 |③-④-|
9
口口口口 |①--②|
口口口口 |--③-|
①③②①
口口口口

口口口口
④口口④
⑥口口⑤ |④--⑤|
口⑧⑦口 |⑥-⑦⑧|
10
口①口口 |①-②③|
口口③② |-④⑤⑥|
④⑤⑥口 |--⑦-|
⑨口⑧⑦ |⑧-⑨-|
11
口口①① |①--②|
②口③③ |③--④|
④口口口
口口口口

口⑧⑦口
口口口口
口口⑤⑤ |⑤-⑥-|
⑥口口⑥ |--⑦⑧|
12
口口口口 |①②③④|
②口口① |⑤⑥⑦⑧|
④⑥⑤③
口⑧⑦口

口⑩⑨口
口⑫⑪口
口⑭⑬口 |--⑨⑩|
口口口口 |⑪⑫⑬⑭|
13
④口口④ |①--②|
口③③口 |③--④|
②口口②
口口①口

口口口口
口口口口
口⑤⑤口 |⑤---|
口口口口

口口口口
口⑥口口
口⑦口口
口口口口 |--⑥⑦|
14
口口⑥② |①-②-|
⑤口口③ |③-④-|
口口口④ |--⑤-|
口①口口 |⑥---|
15
口口口口 |①---|
口①①口 |②---|
口②②口
口口口口

口口口口
口口口口
口⑤⑤口 |③---|
④③③④ |④-⑤-|
16
②③③② |①-②-|
①口口① |--③-|
口口口口
口口口口

口口口口
④口口④
⑤口口⑤ |--④-|
⑥口口⑥ |⑤-⑥-|
17
①①口口 |①②-③|
③③②② |④-⑤⑥|
⑤⑤④④
口口⑥⑥

⑦⑦⑨⑨
口口⑧⑧
⑩⑩口口 |-⑦⑧-|
口⑪⑫口 |⑨⑩⑪⑫|
18
②③口口 |①-②③|
口口⑤④ |-④-⑤|
⑥口⑦⑧ |-⑥-⑦|
口⑨口① |-⑧-⑨|
19
口③口④ |-①-②|
口口②口 |-③-④|
①口口口
口口口口

口⑤⑤口
口口口口
口口口口 |----|
口口口口 |--⑤-|
20
口口口口 |①--②|
①口口① |③--④|
②口③②
口口口④

口口口口
口⑦⑥口
⑧⑨口口 |⑤-⑥⑦|
口口⑤口 |-⑧-⑨|
21
口③口口 |-①-②|
口口②口 |-③-④|
④口口口
口口口①

口口口口
口⑦⑥口
口口口口 |--⑤-|
口口⑤口 |--⑥⑦|
22
口②③口 |①-②③|
①口口④ |-④-⑤|
口口口⑤
口口口口

⑨⑨⑨⑨
口口口口
口⑧口口 |-⑥-⑦|
⑦口⑥口 |-⑧-⑨|
23
口④口口 |-①-②|
①④口① |-③-④|
②口口②
③③③③

口口口⑤
口口口⑤
口口口口 |--⑤-|
口口口口 |----|
24
口口口口 |①---|
口口口口 |②---|
①①②②
①①②②

口口口口
③③④④
③③④④ |③---|
口口口口 |④---|
25
①①②② |①---|
①①②② |②---|
⑤③③⑤ |③---|
④③③④ |--④⑤|
26
口②②口 |①--②|
①③③① |--③-|
口口口口
口口口口

口口口口
④口口④
口⑤⑤口 |④--⑤|
口⑥⑥口 |--⑥-|
27
口口口口 |①--②|
②口口② |--③-|
口口口口
①③③①

⑤口口⑤
⑥口口⑥
口④④口 |④---|
口口口口 |--⑤⑥|
28
口②②口 |①--②|
口③③口 |--③-|
①口口①
口口口口

口口口口
口⑥⑥口
④⑦⑦④ |④--⑤|
口⑤⑤口 |--⑥⑦|
29
②口口② |①--②|
口口③③ |--③-|
③③口口
①口口①

口口口口
④④口口
口口④④ |④---|
口口口口

口口口口
⑥口口口
⑤口口口
口口口口 |--⑤⑥|
30
①口②口 |①--②|
口口口④ |--③④|
口口口③
口口口口

⑦⑥口⑤
口⑨⑧口
口口口口 |⑤-⑥⑦|
口口口口 |--⑧⑨|
31
④口口④ |①--②|
③口口③ |-③-④|
①口口① |----|
⑤②②口 |--⑤-|
32
⑥口口③ |①--②|
口口口口 |--③-|
口①⑤② |④--⑤|
口口口④ |--⑥-|
33
口③③③ |①-②-|
口③③③ |③---|
②②②①
②②②口

口口口口
⑧口⑥口
⑦⑤口口 |④--⑤|
口口口④ |⑥-⑦⑧|
34
口①口口 |①-②③|
口口③② |-④⑤⑥|
④⑤⑥口 |--⑦-|
⑨口⑧⑦ |⑧-⑨-|
35
口口①① |①--②|
②口③③ |③--④|
④口口口
口口口口

口⑧⑦口
口口口口
口口⑤⑤ |⑤-⑥-|
⑥口口⑥ |--⑦⑧|
36
口口口口 |①②③④|
②口口① |⑤⑥⑦⑧|
④⑥⑤③
口⑧⑦口

口⑩⑨口
口⑫⑪口
口⑭⑬口 |--⑨⑩|
口口口口 |⑪⑫⑬⑭|
37
④口口④ |①--②|
口③③口 |③--④|
②口口②
口口①口

口口口口
口口口口
口⑤⑤口 |⑤---|
口口口口

口口口口
口⑥口口
口⑦口口
口口口口 |--⑥⑦|
38
口口⑥② |①-②-|
⑤口口③ |③-④-|
口口口④ |--⑤-|
口①口口 |⑥---|
39
口口口口 |①---|
口①①口 |②---|
口②②口
口口口口

口口口口
口口口口
口⑤⑤口 |③---|
④③③④ |④-⑤-|
40
②③③② |①-②-|
①口口① |--③-|
口口口口
口口口口

口口口口
④口口④
⑤口口⑤ |--④-|
⑥口口⑥ |⑤-⑥-|
41
①①口口 |①②-③|
③③②② |④-⑤⑥|
⑤⑤④④
口口⑥⑥

⑦⑦⑩⑩
口口⑧⑧
口口口口 |-⑦⑧-|
⑨⑨口口 |⑨⑩--|


不确定度: 0

最終更新:2012年11月23日 03:05