空色デイズ

BASIC

Level: 3
BPM: 174
Notes: 206

1
口口口口 |----|
口口口口 |----|
口口口口 |----|
口口口口 |----|
2
口口口口 |--①-|
②口口② |----|
口①①口 |----|
口口口口 |--②-|
3
口口口口 |----|
口口口口 |----|
口口口口 |①---|
口①①口 |----|
4
口口口口 |--①-|
口②②口 |----|
①口口① |----|
口口口口 |--②-|
5
②口口② |----|
①口口① |----|
口口口口 |①---|
口口口口 |②---|
6
口口口口 |①---|
口②②口 |----|
口①①口 |②---|
口口口口 |----|
7
口口口口 |①---|
②口口② |----|
①口口① |②---|
口口口口 |----|
8
①①②② |①---|
口口口口 |----|
口口口口 |②---|
口口口口 |----|
9
口口口口 |①---|
口口口口 |----|
①①②② |②---|
口口口口 |----|
10
口口口口 |①---|
口口口口 |②---|
口口口口 |③---|
①②③④ |④---|
11
口口口口 |①---|
口②③口 |②-③-|
口①口口 |----|
口口口口 |----|
12
口口口口 |----|
口口口口 |----|
口口口口 |----|
口口口口 |----|
13
口口口口 |①---|
口③口口 |----|
①口口② |②---|
口口口口 |--③-|
14
口口口口 |--①-|
口口口口 |--②-|
口①口口 |③---|
口②③口 |----|
15
口口口口 |①---|
①③口② |----|
口口口口 |②---|
口口口口 |③---|
16
口口口口 |①---|
口口①口 |②---|
口②③口 |③---|
口口口口 |----|
17
口口口口 |①---|
口口口口 |----|
①口口② |②---|
口口口口 |----|
18
口口口口 |①---|
口①②口 |----|
口口口口 |②---|
口口口口 |----|
19
口口口口 |①---|
①口口① |--②-|
②口口② |----|
③口口③ |③---|
20
口口口口 |----|
口口口口 |----|
口口口口 |----|
口口口口 |----|
21
口口口口 |①---|
①口口② |----|
③口口口 |②---|
口口口口 |--③-|
22
口口口口 |--①-|
口口口口 |--②-|
口口口① |③---|
口②③口 |----|
23
口口口口 |①---|
口口口口 |----|
①口口② |②---|
口③③口 |③---|
24
口③③口 |①---|
口②②口 |②---|
口①①口 |③---|
口口口口 |----|
25
口口口口 |①---|
口口口口 |----|
①②口口 |②---|
口口口口 |----|
26
口口口口 |①---|
口口口口 |----|
口口①② |②---|
口口口口 |----|
27
口③③口 |①---|
②口口② |--②-|
口①①口 |----|
口口口口 |--③-|
28
口口口口 |----|
口口口口 |----|
口口口口 |①---|
口①口口 |----|
29
口口口口 |①---|
口口口口 |----|
②口口口 |②---|
口口①口 |----|
30
口口口口 |①---|
口②②口 |----|
口口口① |②---|
口口口口 |----|
31
口口口口 |①---|
①口口② |----|
口③口口 |②---|
口口口口 |--③-|
32
口口口口 |--①-|
口口口口 |----|
口口①口 |----|
口口口口 |----|
33
口口口口 |①---|
口口口口 |----|
口口口口 |②---|
口①②口 |----|
34
口口口口 |①---|
口口口口 |----|
①口口② |②---|
口口口口 |----|
35
口②②口 |①---|
①口口① |----|
口口口口 |②---|
口口口口 |----|
36
口口口口 |----|
口口口口 |----|
口口口口 |----|
口口口口 |----|
37
口口口口 |①---|
口①①口 |--②-|
②③④口 |--③-|
口口口口 |--④-|
38
口口口口 |----|
口口口口 |----|
口口口口 |----|
口口口口 |----|
39
口口口口 |①---|
口口口口 |--②-|
口④③② |--③-|
口①①口 |--④-|
40
口口口口 |----|
①口口① |----|
口口口口 |①---|
口口口口 |----|
41
②①①② |①---|
口口口口 |----|
口口口口 |②---|
口口口口 |----|
42
口口口口 |①---|
口①①口 |----|
②口口② |②---|
口口口口 |----|
43
口口口口 |①---|
口②③口 |--②-|
口口口口 |----|
口①①口 |--③-|
44
口口口口 |----|
口口口口 |----|
口口口口 |----|
口口口口 |----|
45
口口口口 |①---|
②③④口 |--②-|
①口口① |--③-|
口口口口 |--④-|
46
口口口口 |----|
口口口口 |----|
口口口口 |----|
口口口口 |----|
47
口口口口 |①---|
口口口口 |--②-|
口①①口 |--③-|
口④③② |--④-|
48
口口口口 |----|
口口口口 |----|
①口口① |①---|
口口口口 |----|
49
口口口口 |①---|
①口口① |----|
口②②口 |②---|
口口口口 |----|
50
口口口口 |①---|
口口口口 |----|
口口口口 |②---|
①②②① |----|
51
④口口④ |①---|
③口口③ |--②-|
①②②① |--③-|
口口口口 |--④-|
52
口口口口 |----|
口口口口 |----|
口口口口 |----|
口口口口 |----|
53
口口口口 |①---|
口①①口 |----|
②口口③ |--②-|
口口口口 |--③-|
54
口口口口 |----|
口口口口 |----|
口口口口 |----|
口口口口 |----|
55
口口口口 |①---|
口③③口 |--②-|
①②②① |----|
口口口口 |--③-|
56
①口口① |----|
口口口口 |----|
口口口口 |①---|
口口口口 |----|
57
口①①口 |①---|
口②②口 |----|
口口口口 |②---|
口口口口 |----|
58
口口口口 |①---|
②口口② |----|
①口口① |②---|
口口口口 |----|
59
①①②② |①---|
口口口口 |----|
口口口口 |②---|
口口口口 |----|
60
口口口口 |①---|
口口口口 |----|
①①②② |②---|
口口口口 |----|
61
口口口口 |①---|
①②②① |----|
口口口口 |②---|
口口口口 |----|
62
口口口口 |①---|
②口口② |----|
①口口① |②---|
口口口口 |----|
63
①①②② |①---|
口口口口 |----|
口口口口 |②---|
口口口口 |----|
64
口口口口 |①---|
口口口口 |----|
①①②② |②---|
口口口口 |----|
65
口口口口 |①---|
口口口口 |②---|
口口口口 |③---|
①②③④ |④---|
66
口口口口 |①---|
口②③口 |②-③-|
口①口口 |----|
口口口口 |----|


不确定度: 0

最終更新:2012年11月23日 02:53