空色デイズ

ADVANCED

Level: 6
BPM: 174
Notes: 332

1
口口口口 |----|
口口口口 |----|
口口口口 |----|
口口口口 |----|
2
口口口口 |--①-|
口⑤口口 |②-③-|
口③④口 |④-⑤-|
⑥①②口 |--⑥-|
3
④口口⑤ |①-②-|
⑥口口⑦ |③---|
②口口③ |④-⑤-|
口口口① |⑥-⑦-|
4
口口口口 |--①-|
口⑤口口 |②-③-|
口③④口 |④-⑤-|
⑥①②口 |--⑥-|
5
④口口⑤ |①-②-|
⑥口口⑦ |③---|
②口口③ |④-⑤-|
口口口① |⑥-⑦-|
6
口⑥口口 |--①-|
口口口口 |②-③-|
口③④⑤ |④-⑤-|
口①②口 |--⑥-|
7
口口①口 |①-②-|
⑥②③口 |③---|
④口口⑤ |④-⑤-|
口口口口 |⑥---|
8
口⑥口口 |--①-|
口口口口 |②-③-|
口③④⑤ |④-⑤-|
口①②口 |--⑥-|
9
口口①口 |①-②-|
⑤②③⑤ |③---|
④口口④ |④---|
口口口口 |⑤---|
10
口①②口 |①-②-|
口③④⑦ |③-④-|
口⑤⑥口 |⑤-⑥-|
口口口口 |--⑦-|
11
口口口口 |①-②-|
口口口口 |③-④-|
①口口② |----|
③口口④ |----|
12
口口口口 |----|
口口口口 |----|
口口口口 |----|
口口口口 |----|
13
口口口口 |①---|
①口②③ |--②-|
口口口口 |③---|
④口口④ |--④-|
14
口口口口 |--①-|
口②③口 |--②-|
①口口① |③---|
口口口口 |----|
15
①口②③ |①---|
口④⑤口 |--②-|
口口口口 |③---|
口口口口 |④-⑤-|
16
口口口口 |--①-|
口口口口 |②---|
口①②口 |③---|
③口口③ |----|
17
口口口口 |①---|
③②口① |--②-|
口口口口 |③---|
④口口④ |--④-|
18
④口口口 |--①-|
口②③口 |--②-|
①口口① |③---|
口口口口 |--④-|
19
口②③① |①---|
④口口⑤ |②-③-|
口口口口 |--④-|
口口口口 |⑤---|
20
口口口口 |----|
口口口口 |----|
口口口口 |----|
口口口口 |----|
21
口口口口 |①---|
③②口口 |--②-|
口口①① |③---|
④口口④ |--④-|
22
口口口口 |--①-|
口②③口 |--②-|
①口口① |③---|
口口口口 |----|
23
①①口口 |①---|
口口②③ |--②-|
口④⑤口 |③---|
口口口口 |④-⑤-|
24
口口口口 |--①-|
口口口口 |②---|
口口口口 |③---|
③①②③ |----|
25
④口口④ |①---|
①①口口 |--②-|
口口②③ |③---|
口口口口 |--④-|
26
口口口口 |--①-|
①口口① |--②-|
口②③口 |③---|
④口口口 |--④-|
27
口口口口 |①---|
口口口口 |--②-|
③⑤口④ |--③-|
口②②① |④-⑤-|
28
口②②口 |----|
口①①口 |----|
口口口口 |①---|
口口口口 |②---|
29
①口口① |①---|
口口口口 |②-③-|
②③④口 |④---|
口口⑥⑤ |⑤-⑥-|
30
口⑤口口 |--①-|
①②③④ |②-③-|
口口口口 |④---|
口口口口 |--⑤-|
31
②口①③ |①---|
④口口④ |②-③-|
⑤口口⑤ |--④-|
口口口口 |--⑤-|
32
口口口口 |--①-|
口口口口 |----|
口口口口 |----|
①②口① |--②-|
33
口口口口 |①---|
口口⑥⑤ |②-③-|
②③④口 |④---|
口口①口 |⑤-⑥-|
34
①②③④ |--①-|
口口⑥⑤ |②-③-|
口口口口 |④---|
口口口口 |⑤-⑥-|
35
口口口口 |①---|
口①口口 |--②-|
②③口口 |③---|
口口口口 |----|
36
口口口口 |----|
①口口① |----|
口口口口 |----|
口口口口 |①---|
37
①口口① |①---|
口口口口 |②-③-|
⑤②③⑤ |--④-|
④口口④ |--⑤-|
38
口口口口 |----|
①②③口 |----|
口口口口 |--①-|
口口口口 |②-③-|
39
⑤②③⑤ |①---|
口口口① |②-③-|
④口口④ |--④-|
口口口口 |--⑤-|
40
口口口口 |----|
①②口口 |----|
口口口口 |①---|
口口口口 |②---|
41
口口口口 |①---|
口口①口 |②-③-|
口②③口 |--④-|
④口口⑤ |--⑤-|
42
口口口口 |----|
③④口口 |①-②-|
口口口口 |--③-|
口①②口 |--④-|
43
口口①② |----|
口口口口 |①-②-|
口⑤④③ |--③-|
口口口口 |④-⑤-|
44
口口口口 |----|
①口口① |----|
口口口口 |----|
口口口口 |①---|
45
①口口① |①---|
口口口口 |②-③-|
⑤②③⑤ |--④-|
④口口④ |--⑤-|
46
口口口口 |----|
①②③口 |----|
口口口口 |--①-|
口口口口 |②-③-|
47
⑤②③⑤ |①---|
口口口① |②-③-|
④口口④ |--④-|
口口口口 |--⑤-|
48
口口口口 |----|
①②口口 |----|
口口口口 |①---|
口口口口 |②---|
49
口口口口 |①---|
口口①口 |②-③-|
口②③口 |--④-|
④口口⑤ |--⑤-|
50
口③③口 |----|
口②②口 |①---|
口①①口 |②---|
口口口口 |③---|
51
①口口① |①---|
⑤口口⑤ |②-③-|
口②③口 |--④-|
④口口④ |--⑤-|
52
口口口口 |----|
口口口口 |----|
①口口口 |----|
口口口口 |①---|
53
④口口⑤ |①---|
口②③口 |②-③-|
口口口口 |--④-|
口①①口 |--⑤-|
54
口口口口 |----|
口口口口 |----|
口口①口 |----|
口口口口 |①---|
55
⑤口口⑤ |①---|
④口口④ |②-③-|
口口口口 |--④-|
①②③① |--⑤-|
56
口口口口 |----|
口口口口 |----|
口①①口 |①---|
口口口口 |----|
57
口⑦口口 |①-②-|
①口口① |③-④-|
口④⑤⑥ |⑤-⑥-|
口②③口 |--⑦-|
58
口口①口 |①-②-|
⑥②③口 |③---|
④口口⑤ |④-⑤-|
口口口口 |⑥---|
59
口⑥口口 |--①-|
口口口口 |②-③-|
口③④⑤ |④-⑤-|
口①②口 |--⑥-|
60
口口①口 |①-②-|
⑤②③⑤ |③---|
④口口④ |④---|
口口口口 |⑤---|
61
口⑥口口 |--①-|
口口口口 |②-③-|
口③④⑤ |④-⑤-|
口①②口 |--⑥-|
62
口口①口 |①-②-|
⑥②③口 |③---|
④口口⑤ |④-⑤-|
口口口口 |⑥---|
63
口⑥口口 |--①-|
口口口口 |②-③-|
口③④⑤ |④-⑤-|
口①②口 |--⑥-|
64
口口①口 |①-②-|
⑤②③⑤ |③---|
④口口④ |④---|
口口口口 |⑤---|
65
⑦①②口 |①-②-|
口③④口 |③-④-|
口⑤⑥口 |⑤-⑥-|
口口口口 |--⑦-|
66
口口口① |①-②-|
②口口③ |③-④-|
口口口口 |----|
口④④口 |----|


不确定度: 0

最終更新:2012年11月23日 02:53