空色デイズ

EXTREME

Level: 8
BPM: 174
Notes: 515

1
口口口口 |----|
口口口口 |----|
口口口口 |----|
口口口口 |----|
2
口①④口 |--①-|
②⑥⑤③ |②-③-|
③⑤⑥② |④-⑤-|
口④①口 |--⑥-|
3
②①⑦⑥ |①-②-|
③口④⑤ |③---|
⑤④口③ |④-⑤-|
⑥⑦①② |⑥-⑦-|
4
口①⑥口 |--①-|
②③④⑤ |②-③-|
⑤④③② |④-⑤-|
口⑥①口 |--⑥-|
5
②①⑤⑤ |①-②-|
③口④④ |③---|
④④口③ |④---|
⑤⑤①② |⑤---|
6
①口⑦⑥ |①-②-|
③②④⑤ |③-④-|
⑤④②③ |⑤-⑥-|
⑥⑦口① |--⑦-|
7
③②口口 |①-②-|
⑤①⑥④ |③---|
④⑥①⑤ |④-⑤-|
口口②③ |⑥---|
8
③②⑥口 |--①-|
④①口⑤ |②-③-|
⑤口①④ |④-⑤-|
口⑥②③ |--⑥-|
9
④③口口 |①-②-|
口②①⑤ |③---|
⑤①②口 |④---|
口口③④ |⑤---|
10
⑤口口④ |①-②-|
③⑦口⑥ |③-④-|
口口⑧② |⑤-⑥-|
①口口口 |--⑦⑧|
11
口口口④ |①-②-|
③口口口 |③-④-|
口口口② |----|
口①口口 |----|
12
口①①口 |----|
口口口口 |----|
口口口口 |----|
口口口口 |①---|
13
④口口口 |①---|
口口口① |--②-|
口②口口 |③---|
口③口口 |--④-|
14
口口口① |--①-|
口口口口 |--②-|
口口口口 |③---|
口②③口 |----|
15
口④口口 |①---|
①口⑤口 |--②-|
口口②口 |③---|
口口③口 |④-⑤-|
16
口口④口 |--①-|
口口口④ |②---|
③口②③ |③---|
口①口口 |④---|
17
④口口① |①---|
①口口口 |--②-|
口②口口 |③---|
口③口口 |--④-|
18
口口口① |--①-|
口口口口 |--②-|
④口口④ |③---|
口②③口 |--④-|
19
④口口④ |①---|
⑤口口⑤ |②-③-|
口②②口 |--④-|
①③③① |⑤---|
20
口口口口 |----|
口⑤⑥口 |----|
口③④口 |①-②-|
①口口② |③④⑤⑥|
21
①②③① |①---|
②口口③ |--②-|
口口口口 |③---|
④口口④ |--④-|
22
②口口③ |--①-|
口⑤⑥口 |--②-|
①④口① |③-④-|
口口口口 |⑤⑥--|
23
口①①口 |①---|
④口口⑤ |--②-|
②④⑤③ |③---|
口②③口 |④-⑤-|
24
①③③② |--①-|
口①②口 |②---|
口⑥⑦口 |③-④-|
④口口⑤ |⑤-⑥⑦|
25
口口口口 |①---|
①口口① |--②-|
③④④③ |③---|
口②②口 |--④-|
26
②口口③ |--①-|
口①①口 |--②-|
口口口口 |③---|
④口口④ |--④-|
27
口⑤⑤口 |①---|
③④④③ |--②-|
①②②① |--③-|
口口口口 |④-⑤-|
28
口口口口 |----|
②口口① |----|
①口口② |①---|
口口口口 |②---|
29
口②口口 |①---|
口口③口 |②-③-|
口④口口 |④---|
⑤①①⑥ |⑤-⑥-|
30
⑤②③口 |--①-|
①口口④ |②-③-|
口口口口 |④---|
口口口口 |--⑤-|
31
口口口口 |①---|
⑤①③⑤ |②-③-|
④②口④ |--④-|
口口口口 |--⑤-|
32
①口口① |--①-|
口口②口 |----|
口②口口 |----|
口口口口 |--②-|
33
口⑤⑥口 |①---|
④①口口 |②-③-|
口口①③ |④---|
②口口口 |⑤-⑥-|
34
口口口口 |--①-|
口口口口 |②-③-|
①口口④ |④---|
⑤②③⑥ |⑤-⑥-|
35
④③②① |①-②-|
⑤⑥⑦⑧ |③-④-|
口①①口 |⑤-⑥-|
口④⑤口 |⑦-⑧-|
36
口⑥口口 |①-②-|
口⑥口口 |③-④-|
④③②① |⑤---|
⑤口口⑤ |⑥---|
37
口口①口 |①---|
⑤口①⑤ |②-③-|
②②③③ |--④-|
④口口④ |--⑤-|
38
口②③口 |----|
口口口口 |----|
①口口口 |--①-|
口口口口 |②-③-|
39
口口口② |①---|
⑤③③⑤ |②-③-|
口⑤⑤① |--④-|
口④④口 |--⑤-|
40
口口口口 |----|
口口口口 |----|
②口口① |①---|
①口口② |②---|
41
口④⑤口 |①---|
②⑤④③ |②-③-|
口①①口 |--④-|
口口口口 |--⑤-|
42
①口口② |----|
口口口口 |①-②-|
③③④④ |--③-|
④④③③ |--④-|
43
①口口② |----|
口口⑤⑤ |①-②-|
口④口口 |--③-|
口口③口 |④-⑤-|
44
口①口口 |----|
口①口口 |----|
口口口口 |----|
口口口口 |①---|
45
口口①口 |①---|
⑤口①⑤ |②-③-|
②②③③ |--④-|
④口口④ |--⑤-|
46
口②③口 |----|
口口口口 |----|
①口口口 |--①-|
口口口口 |②-③-|
47
口口口② |①---|
⑤③③⑤ |②-③-|
口⑤⑤① |--④-|
口④④口 |--⑤-|
48
口口口口 |----|
口口口口 |----|
②口口① |①---|
①口口② |②---|
49
口④⑤口 |①---|
②⑤④③ |②-③-|
口①①口 |--④-|
口口口口 |--⑤-|
50
口③口口 |----|
口口口③ |①---|
①口口② |②---|
口②①口 |③---|
51
②口①口 |①---|
①口口口 |②-③-|
口③③口
口口口口

口口口口
⑤⑤⑤⑤
④口口④ |--④-|
④口口④ |--⑤-|
52
口口口口 |----|
口口口口 |----|
口口口口 |----|
口①①口 |①---|
53
口⑤⑤口 |①---|
①口③① |②-③-|
④②口④ |--④-|
口口口口 |--⑤-|
54
口口口口 |----|
①口口① |----|
口口口口 |----|
口口口口 |①---|
55
⑤口口⑤ |①---|
口②①口 |②-③-|
④②①④ |--④-|
③口口③ |--⑤-|
56
口①①口 |----|
口口口口 |----|
口口口口 |①---|
口口口口 |----|
57
口口口口 |①-②-|
③②④口 |③-④-|
口④②③
口①①口

口⑦口⑥
口口口⑤
⑤口口口 |⑤-⑥-|
⑥口⑦口 |--⑦-|
58
③口⑤④ |①-②-|
②①⑥口 |③---|
口⑥①② |④-⑤-|
④⑤口③ |⑥---|
59
③②口⑥ |--①-|
④①口⑤ |②-③-|
⑤口①④ |④-⑤-|
⑥口②③ |--⑥-|
60
④⑤①口 |①-②-|
口③②口 |③---|
口②③口 |④---|
口①⑤④ |⑤---|
61
口⑥口⑤ |--①-|
②①③④ |②-③-|
④③①② |④-⑤-|
⑤口⑥口 |--⑥-|
62
③口⑤④ |①-②-|
②①⑥口 |③---|
口⑥①② |④-⑤-|
④⑤口③ |⑥---|
63
③②口⑥ |--①-|
④①口⑤ |②-③-|
⑤口①④ |④-⑤-|
⑥口②③ |--⑥-|
64
④⑤①口 |①-②-|
口③②口 |③---|
口②③口 |④---|
口①⑤④ |⑤---|
65
⑤口口④ |①-②-|
③⑦口⑥ |③-④-|
口口⑧② |⑤-⑥-|
①口口口 |--⑦⑧|
66
口④④口 |①-②-|
口口口口 |③-④-|
口③口口 |----|
口①②口 |----|


不确定度: 0

最終更新:2012年11月23日 02:53