愛 NEED
キマグレン

BASIC

Level: 2
BPM: 120
Notes: 174

1
口口口口 |----|
口口口口 |----|
口口口口 |----|
口口口口 |----|
2
口①②口 |①---|
口口口口 |----|
口口口口 |②---|
口口口口 |----|
3
口口口口 |①---|
口①②口 |----|
口口口口 |②---|
口口口口 |----|
4
口口口口 |①---|
口口口口 |----|
口①②口 |②---|
口口口口 |----|
5
口口口口 |①---|
口③③口 |②---|
口②②口 |③---|
口①①口 |----|
6
①口口② |①---|
口口口口 |----|
口口口口 |②---|
口口口口 |----|
7
口①口口 |①---|
口口②口 |②---|
口③口口 |③---|
口口④口 |④---|
8
口口口口 |①---|
口口口口 |----|
②口口① |②---|
口口口口 |----|
9
口④口口 |①---|
口口③口 |②---|
口②口口 |③---|
口口①口 |④---|
10
①②口口 |①---|
口口口口 |----|
口口口口 |②---|
口口口口 |----|
11
口口①② |①---|
口口口口 |----|
口口口口 |②---|
口口口口 |----|
12
口口口口 |①---|
口口③① |----|
口口②口 |②---|
口口口口 |③---|
13
口口①口 |①---|
口口口口 |----|
口口口口 |----|
口口口口 |----|
14
口口口口 |①---|
①②口口 |----|
口口口口 |②---|
口口口口 |----|
15
口口口口 |①---|
口口①② |----|
口口口口 |②---|
口口口口 |----|
16
口口口口 |①---|
口口口口 |----|
口口②① |②---|
口口口口 |----|
17
口口口口 |①---|
口口口口 |----|
②①口口 |②---|
口口口口 |----|
18
①口口② |①---|
口口口口 |----|
口口口口 |②---|
口口口口 |----|
19
口口口口 |①---|
①口口② |----|
口口口口 |②---|
口口口口 |----|
20
口口口口 |①---|
口口口口 |----|
①口口② |②---|
口口口口 |----|
21
口④口口 |①---|
口口③口 |②---|
口②口口 |③---|
口口①口 |④---|
22
口口口口 |----|
口口口口 |----|
口口口口 |----|
口口口口 |----|
23
①②口口 |①---|
口口③口 |②---|
口口④口 |③-④-|
口口⑤口 |⑤---|
24
口口口口 |①---|
⑤④③口 |②---|
口②口口 |③-④-|
口①口口 |⑤---|
25
①②口口 |①---|
口口③口 |②---|
口口④口 |③-④-|
口口⑤口 |⑤---|
26
口口口口 |①---|
⑤④③口 |②---|
口②口口 |③-④-|
口①口口 |⑤---|
27
①②口口 |①---|
口口③口 |②---|
口口④口 |③-④-|
口口⑤口 |⑤---|
28
口口口口 |①---|
⑤④③口 |②---|
口②口口 |③-④-|
口①口口 |⑤---|
29
①②口口 |①---|
口口③口 |②---|
口口④口 |③-④-|
口口⑤口 |⑤---|
30
口④口口 |①---|
口③口口 |②---|
口②口口 |③---|
口①口口 |④---|
31
口口①口 |①---|
口口口② |②---|
口口口③ |③---|
口口口口 |----|
32
①②口口 |①---|
口口口口 |----|
口口口口 |②---|
口口口口 |----|
33
口口①② |①---|
口口口口 |----|
口口口口 |②---|
口口口口 |----|
34
口口口口 |①---|
口口②① |----|
口口口口 |②---|
口口口口 |----|
35
口口口口 |①---|
②①口口 |----|
口口口口 |②---|
口口口口 |----|
36
口口口口 |①---|
口口口口 |----|
①②口口 |②---|
口口口口 |----|
37
口口口口 |①---|
口口口口 |----|
口口①② |②---|
口口口口 |----|
38
口口口口 |①---|
口口口口 |----|
口口口口 |②---|
口口②① |----|
39
口口口口 |①---|
口口口口 |----|
口口口口 |②---|
②①口口 |----|
40
①口口② |①---|
口口口口 |----|
口口口口 |②---|
口口口口 |----|
41
口口口口 |①---|
①口口② |----|
口口口口 |②---|
口口口口 |----|
42
口口口口 |①---|
口口口口 |----|
①口口② |②---|
口口口口 |----|
43
口口④口 |①---|
口③口口 |②---|
口口②口 |③---|
口①口口 |④---|
44
口口口口 |----|
口口口口 |----|
口口口口 |----|
口口口口 |----|
45
①②口口 |①---|
口口③口 |②---|
口口④口 |③-④-|
口口⑤口 |⑤---|
46
口口口口 |①---|
⑤④③口 |②---|
口②口口 |③-④-|
口①口口 |⑤---|
47
①②口口 |①---|
口口③口 |②---|
口口④口 |③-④-|
口口⑤口 |⑤---|
48
口口口口 |①---|
⑤④③口 |②---|
口②口口 |③-④-|
口①口口 |⑤---|
49
①②口口 |①---|
口口③口 |②---|
口口④口 |③-④-|
口口⑤口 |⑤---|
50
口口口口 |①---|
⑤④③口 |②---|
口②口口 |③-④-|
口①口口 |⑤---|
51
①②口口 |①---|
口口③口 |②---|
口口④口 |③-④-|
口口⑤口 |⑤---|
52
口④口口 |①---|
口③口口 |②---|
口②口口 |③---|
口①口口 |④---|
53
口口①口 |①---|
口口口口 |----|
口口口口 |----|
口口口口 |----|
54
①口口口 |①---|
口②口口 |----|
口口口口 |②---|
口口口口 |----|
55
口口口口 |①---|
口口口口 |----|
口口①口 |②---|
口口口② |----|
56
口口口① |①---|
口口②口 |----|
口口口口 |②---|
口口口口 |----|
57
口口口口 |①---|
口口口口 |----|
口①口口 |②---|
②口口口 |----|
58
口口口口 |①---|
口口口口 |----|
口口口口 |②---|
口①②口 |----|
59
口口口口 |①---|
口口口口 |----|
口②①口 |②---|
口口口口 |----|
60
口口口口 |①---|
口①②口 |----|
口口口口 |②---|
口口口口 |----|
61
口②①口 |①---|
口口口口 |----|
口口口口 |②---|
口口口口 |----|


不确定度: 0

最終更新:2012年11月23日 02:46