愛 NEED
キマグレン

ADVANCED

Level: 5
BPM: 120
Notes: 397

1
口口口口 |----|
口口口口 |----|
口口口口 |----|
口口口口 |----|
2
②③口① |①-②③|
口口④口 |-④-⑤|
口口⑤口 |-⑥--|
口口⑥口 |----|
3
口口口口 |--①-|
口①口口 |②③--|
口口②口 |----|
口口③口 |----|
4
②③口① |①-②③|
口口④口 |-④-⑤|
口口⑤口 |-⑥--|
口口⑥口 |----|
5
①②口口 |--①-②-|
⑥⑤④③ |③-④-⑤-|
口口口口 |⑥---|
口口口口 |----|
6
③⑤⑤① |①②-③|
④⑥⑥② |④-⑤-|
口⑦⑦口 |⑥-⑦-|
口⑧⑧口 |⑧---|
7
①口口② |①---|
①口口② |②---|
③口口④ |③---|
③口口④ |④---|
8
口①②口 |①②-③|
④③③⑤ |-④⑤-|
⑨⑥⑦口 |⑥⑦-⑧|
⑨⑧⑧口 |--⑨-|
9
口口口口 |①---|
②④⑤③ |②-③-|
口⑥⑥① |④-⑤-|
口⑥⑥① |⑥---|
10
①口口④ |①-②-|
口②⑤口 |③---|
③口口⑥ |④-⑤-|
口口口口 |⑥---|
11
口口口口 |①-②-|
①口口④ |③---|
口②⑤口 |④-⑤-|
③口口⑥ |⑥---|
12
口①④口 |①-②-|
口⑤②口 |③---|
口③⑥口 |--④-|
口口口口 |⑤-⑥-|
13
②口③口 |①---|
④口⑤口 |----|
口口口口 |---②|
口①口口 |③-④⑤|
14
口①口② |---①|
⑤③⑥④ |②-③④|
⑦口⑧口 |---⑤|
口口口口 |⑥-⑦⑧|
15
口⑤口口 |---①|
口①口② |②-③④|
口③口④ |----|
口口口口 |--⑤-|
16
②口①② |①---|
口③③口 |②---|
口④④口 |③-④-|
口⑤⑤口 |⑤---|
17
口①口口 |①-②-|
口口②口 |③-④-|
口③口口
口口④口

口口口口
口⑥⑥口
口口口口 |--⑤-|
⑤口口⑤ |⑥---|
18
口口①① |①---|
②③④口 |--②③|
口口⑥⑤ |④---|
口口口口 |--⑤⑥|
19
口口口口 |①---|
口口口口 |②---|
口①口口
②②口口

口口口口
口④③口
口④③口 |③---|
口口口口 |④---|
20
①①口口 |①---|
口④③② |--②③|
口口口口 |④---|
口口口口 |----|
21
口④④口 |①---|
口③③口 |②---|
口②②口 |③---|
口①①口 |④---|
22
口口口口 |①②-③|
②口口① |④-⑤⑥|
④口口③
⑥口口⑤

口口口口
口口口口
口口口⑦ |----|
口⑨⑧口 |⑦-⑧⑨|
23
口⑥⑤④ |①--②|
口口③口 |③---|
①口②口 |④-⑤-|
口口口口 |⑥---|
24
①口口口 |①-②-|
口②口口 |③-④-|
口口③口
口口口④

口口⑥口
口⑦口⑤
口口口口 |⑤-⑥-|
口口口口 |⑦---|
25
口⑥⑤④ |①--②|
口口③口 |③---|
①口②口 |④-⑤-|
口口口口 |⑥---|
26
①口口口 |①-②-|
口②口口 |③-④-|
口口③口
口口口④

口口⑥口
口⑦口⑤
口口口口 |⑤-⑥-|
口口口口 |⑦---|
27
口⑥⑤④ |①--②|
口口③口 |③---|
①口②口 |④-⑤-|
口口口口 |⑥---|
28
①口口口 |①-②-|
口②口口 |③-④-|
口口③口
口口口④

口口⑥口
口⑦口⑤
口口口口 |⑤-⑥-|
口口口口 |⑦---|
29
口⑥⑤④ |①--②|
口口③口 |③---|
①口②口 |④-⑤-|
口口口口 |⑥---|
30
①口口口 |①---|
口②口口 |②---|
口口③口 |③---|
口口口④ |④---|
31
口口①① |①---|
口口②② |②---|
口口③③ |③---|
口口口口 |----|
32
口口①口 |①-②-|
口⑥②口 |③---|
口⑤③口 |④-⑤-|
口④口口 |⑥---|
33
⑦口口① |①-②-|
⑥口②口 |③-④-|
⑤③口口 |⑤-⑥-|
④口口口 |⑦---|
34
口①口口 |①-②-|
口②⑥口 |③---|
口③⑤口 |④-⑤-|
口口④口 |⑥---|
35
①口口⑦ |①-②-|
口②口⑥ |③-④-|
口口③⑤ |⑤-⑥-|
口口口④ |⑦---|
36
口口①口 |①-②-|
口⑥②口 |③---|
口⑤③口 |④-⑤-|
口④口口 |⑥---|
37
⑦口口① |①-②-|
⑥口②口 |③-④-|
⑤③口口 |⑤-⑥-|
④口口口 |⑦---|
38
口口③② |①---|
口①①口 |②-③-|
口①①口
口口口口

口④口口
⑤⑥口口
口口口口 |④-⑤⑥|
口口口口 |----|
39
口口口口 |①---|
④③③⑤ |②---|
口②②口 |③-④-|
口①①口 |⑤---|
40
口口①① |①---|
②③④口 |--②③|
口口⑥⑤ |④---|
口口口口 |--⑤⑥|
41
口口口口 |①---|
口口口口 |②---|
口①口口
②②口口

口口口口
口④③口
口④③口 |③---|
口口口口 |④---|
42
①①口口 |①---|
口④③② |--②③|
口口口口 |④---|
口口口口 |----|
43
口④④口 |①---|
口③③口 |②---|
口②②口 |③---|
口①①口 |④---|
44
口口口口 |①②-③|
②口口① |④-⑤⑥|
④口口③
⑥口口⑤

口口口口
口口口口
口口口⑦ |----|
口⑨⑧口 |⑦-⑧⑨|
45
口⑥⑤④ |①--②|
口口③口 |③---|
①口②口 |④-⑤-|
口口口口 |⑥---|
46
①口口口 |①-②-|
口②口口 |③-④-|
口口③口
口口口④

口口⑥口
口⑦口⑤
口口口口 |⑤-⑥-|
口口口口 |⑦---|
47
口⑥⑤④ |①--②|
口口③口 |③---|
①口②口 |④-⑤-|
口口口口 |⑥---|
48
①口口口 |①-②-|
口②口口 |③-④-|
口口③口
口口口④

口口⑥口
口⑦口⑤
口口口口 |⑤-⑥-|
口口口口 |⑦---|
49
口⑥⑤④ |①--②|
口口③口 |③---|
①口②口 |④-⑤-|
口口口口 |⑥---|
50
①口口口 |①-②-|
口②口口 |③-④-|
口口③口
口口口④

口口⑥口
口⑦口⑤
口口口口 |⑤-⑥-|
口口口口 |⑦---|
51
口⑥⑤④ |①--②|
口口③口 |③---|
①口②口 |④-⑤-|
口口口口 |⑥---|
52
①口口口 |①---|
口②口口 |②---|
口口③口 |③---|
口口口④ |④---|
53
口口口口 |①---|
口口①① |----|
口口口口
口口口口

口口口口
口口③②
口口口口 |----|
口口口口 |②-③-|
54
口⑧⑦⑥ |①-②③|
③①⑤口 |--④⑤|
②口④口 |--⑥-|
口口口口 |⑦-⑧-|
55
①口口口 |①---|
口口③② |----|
口口口口 |----|
口口口口 |②-③-|
56
⑦⑧口⑥ |①-②③|
③①⑤口 |--④⑤|
②口④口 |-⑥--|
口口口口 |⑦-⑧-|
57
口口①口 |①---|
口口③② |----|
口口口口 |----|
口口口口 |②-③-|
58
口口口口 |①-②③|
③①⑤口 |--④⑤|
②口④口
口口口口

口口口⑩
口⑦口⑨
口⑥口⑧ |--⑥⑦|
口口口口 |-⑧⑨⑩|
59
口①②口 |---①|
口③②口 |--②-|
口④口口 |---③|
口口⑤口 |-④-⑤|
60
口口③口 |①--②|
口口口② |---③|
口口①口
口口口口

口④口口
⑤口口口
口⑥⑦口 |④---|
口口口口 |⑤-⑥⑦|


不确定度: 0

最終更新:2012年11月23日 02:46