愛 NEED
キマグレン

EXTREME

Level: 7
BPM: 120
Notes: 659

1
口口口口 |----|
口口口口 |----|
口口口口 |----|
口口口口 |----|
2
①口③② |①-②③|
口④口口 |-④-⑤|
口⑤口口
口口口口

口口⑧⑦
口⑨口口
口口口口 |-⑥-⑦|
口⑥口口 |⑧-⑨-|
3
②口④③ |①-②-|
⑤口口口 |③④-⑤|
口①口口
口口口口

口口口口
口口⑦⑥
口⑧口口 |--⑥-⑦-|
口⑨口口 |⑧-⑨-|
4
①口③② |①-②③|
口④口口 |-④-⑤|
⑨⑤⑧⑦ |-⑥-⑦|
口⑥口口 |⑧-⑨-|
5
口口口口 |--①-②-|
①②口口 |③-④-⑤-|
⑥⑤④③ |⑥---|
口口口口 |----|
6
①口口① |①②-③|
③口⑤③ |④-⑤-|
④口口④
②口口②

口口口口
口⑥口口
口⑧⑦口 |⑥-⑦-|
⑨口口口 |⑧-⑨-|
7
④口口② |①-②-|
⑤口口③ |③-④-|
①口口⑦ |⑤-⑥-|
口口口⑥ |⑦---|
8
①口口⑥ |①②-③|
②④⑨⑦ |-④⑤-|
口口⑤口 |⑥⑦-⑧|
③③⑧⑧ |--⑨-|
9
口口口口 |①---|
口①口口 |②-③-|
口口口口
③口口②

口口口口
口⑤④口
⑧⑦⑥⑧ |④⑤⑥⑦|
口⑧⑧口 |⑧---|
10
①②③⑤ |①②③-|
口④④⑥ |④---|
口⑧⑧⑦ |⑤⑥⑦-|
口口口口 |⑧---|
11
口口口口 |①②③-|
⑦④④口 |④---|
⑥⑧⑧口 |⑤⑥⑦-|
⑤③②① |⑧---|
12
①②③口 |①②③-|
口④④口 |④---|
⑥⑦⑦⑥ |--⑤-|
⑤⑥⑥⑤ |⑥-⑦-|
13
①口口① |①---|
口①①口 |----|
口口口口
口口口口

口口⑤④
口口口口
口口口③ |---②|
口口口② |③-④⑤|
14
①口⑧⑦ |---①|
②口口口 |②-③④|
口口口⑥ |---⑤|
③④口⑤ |⑥-⑦⑧|
15
①⑤⑥口 |---①|
②口口口 |②-③④|
口口口口 |----|
③④口口 |--⑤⑥|
16
③口口③ |①②③-|
④①②④ |④-⑤-|
⑤⑧⑧⑤ |⑥-⑦-|
⑥⑦⑦⑥ |⑧---|
17
①③④② |①-②-|
③①②④ |③-④-|
⑤⑥⑥⑤ |--⑤-|
⑥⑤⑤⑥ |⑥---|
18
①①③④ |①---|
口口②口 |--②③|
口口⑤口 |④---|
口口⑥口 |--⑤⑥|
19
口口口口 |①---|
口④③口 |②---|
口⑥⑤口 |③-④-|
②②口① |⑤-⑥-|
20
口①①口 |①---|
②口口② |--②③|
③口口③ |④---|
④口口④ |----|
21
①口口① |①---|
②②②② |②---|
③③③③ |③---|
④口口④ |④---|
22
⑤③③⑤ |①②-③|
口①①口 |④-⑤⑥|
口②②口
⑥④④⑥

口口口口
口⑨⑨口
⑦⑧⑧⑦ |----|
口口口口 |⑦-⑧⑨|
23
③④④③ |①--②|
②⑤⑤② |③---|
⑥口口⑥ |④-⑤-|
①⑥⑥① |⑥---|
24
⑩⑧⑦⑨ |①②③④|
⑥⑫⑪⑤ |⑤⑥⑦⑧|
⑬④③⑬ |⑨⑩⑪⑫|
②口口① |⑬---|
25
③④④③ |①--②|
②⑤⑤② |③---|
⑥口口⑥ |④-⑤-|
①⑥⑥① |⑥---|
26
⑨⑧⑦⑨ |①②③④|
⑥⑩⑩⑤ |⑤⑥⑦⑧|
⑪④③⑪ |⑨-⑩⑪|
②口口① |----|
27
③④④③ |①--②|
②⑤⑤② |③---|
⑥口口⑥ |④-⑤-|
①⑥⑥① |⑥---|
28
⑩⑧⑦⑨ |①②③④|
⑥⑫⑪⑤ |⑤⑥⑦⑧|
⑬④③⑬ |⑨⑩⑪⑫|
②口口① |⑬---|
29
③④④③ |①--②|
②⑤⑤② |③---|
⑥口口⑥ |④-⑤-|
①⑥⑥① |⑥---|
30
③④④③ |①---|
②口口② |②---|
口②②口 |③---|
①口口① |④---|
31
口口口口 |①---|
④①①④ |②-③-|
①④④① |④---|
②③③② |----|
32
⑥⑤⑤⑥ |①-②-|
口④④口 |③---|
口③③口 |④-⑤-|
①②②① |⑥---|
33
口口口口 |①-②-|
口④④口 |③-④-|
口③③口
①②②①

⑥⑤⑤⑥
口口口口
⑦口口⑦ |⑤-⑥-|
口⑦⑦口 |⑦---|
34
③②②③ |①-②-|
口①①口 |③---|
口④④口 |④-⑤-|
⑥⑤⑤⑥ |⑥---|
35
①②②① |①-②-|
口③③口 |③-④-|
口④④口
口口口口

口⑦⑦口
⑦口口⑦
口口口口 |⑤-⑥-|
⑥⑤⑤⑥ |⑦---|
36
①口口① |①-②-|
⑥②②⑥ |③---|
③⑤⑤③ |④-⑤-|
④口口④ |⑥---|
37
④口口④ |①-②-|
⑤③③⑤ |③-④-|
②⑥⑥② |⑤-⑥-|
⑦①①⑦ |⑦---|
38
⑤①①⑥ |①---|
②⑤⑥③ |②-③-|
④②③④ |④-⑤⑥|
口④④口 |----|
39
口口口口 |①②③④|
口口口口 |⑤⑥⑦⑧|
⑧⑦⑥⑤
①②③④

口口口口
⑨口口⑨
口口口口 |⑨-⑩-|
口⑩⑪口 |⑪---|
40
①①③④ |①---|
口口②口 |--②③|
口口⑤口 |④---|
口口⑥口 |--⑤⑥|
41
口口口口 |①---|
口④③口 |②---|
口⑥⑤口 |③-④-|
②②口① |⑤-⑥-|
42
口①①口 |①---|
②口口② |--②③|
③口口③ |④---|
④口口④ |----|
43
①口口① |①---|
②②②② |②---|
③③③③ |③---|
④口口④ |④---|
44
⑤③③⑤ |①②-③|
口①①口 |④-⑤⑥|
口②②口
⑥④④⑥

口口口口
口⑨⑨口
⑦⑧⑧⑦ |----|
口口口口 |⑦-⑧⑨|
45
③④④③ |①--②|
②⑤⑤② |③---|
⑥口口⑥ |④-⑤-|
①⑥⑥① |⑥---|
46
⑩⑧⑦⑨ |①②③④|
⑥⑫⑪⑤ |⑤⑥⑦⑧|
⑬④③⑬ |⑨⑩⑪⑫|
②口口① |⑬---|
47
③④④③ |①--②|
②⑤⑤② |③---|
⑥口口⑥ |④-⑤-|
①⑥⑥① |⑥---|
48
⑥⑤④⑥ |①②--|
③⑦⑦③ |③-④⑤|
⑧口口⑧ |⑥-⑦-|
②口口① |⑧---|
49
③④④③ |①--②|
②⑤⑤② |③---|
⑥口口⑥ |④-⑤-|
①⑥⑥① |⑥---|
50
⑩⑧⑦⑨ |①②③④|
⑥⑫⑪⑤ |⑤⑥⑦⑧|
⑬④③⑬ |⑨⑩⑪⑫|
②口口① |⑬---|
51
③④④③ |①--②|
②⑤⑤② |③---|
⑥口口⑥ |④-⑤-|
①⑥⑥① |⑥---|
52
口口口口 |①---|
②口口② |②---|
口②②口
①口口①

③口口③
口口口口
口口口口 |③---|
④⑤⑤④ |④-⑤-|
53
口口口口 |①---|
①口口① |----|
口①①口
口口口口

口口口口
口口口④
口口③口 |----|
口②口口 |②③④-|
54
①口口⑥ |①-②③|
口口口⑦ |--④⑤|
②口⑤⑧ |--⑥-|
③口④口 |⑦-⑧-|
55
口口口口 |①---|
口口口口 |----|
口口口口
口口口①

口口口口
口口口口
口③④口 |----|
②口口⑤ |②③④⑤|
56
口⑤④口 |①-②③|
⑥③②⑨ |--④⑤|
口⑦⑧口 |-⑥-⑦|
口①①口 |⑧-⑨-|
57
口口口① |①---|
口口口口 |----|
口③④口 |----|
②口口⑤ |②③④⑤|
58
⑥⑤④口 |①-②③|
⑦③②口 |--④⑤|
口⑧⑨⑩ |--⑥⑦|
口①①口 |-⑧⑨⑩|
59
口口口① |---①|
口口②口 |--②③|
口口③口 |---④|
④⑤口⑥ |-⑤-⑥|
60
口口口② |①--②|
口口口口 |---③|
口③口①
口口口口

口口口口
口④口口
口口⑦⑥ |④---|
⑤口口口 |⑤-⑥⑦|


不确定度: 0

最終更新:2012年11月23日 02:45