ロボットハニー
Aira Mitsuki

BASIC

Level: 1
BPM: 131
Notes: 116

1
口口口口 |----|
口口口口 |----|
口口口口 |----|
口口口口 |----|
2
口口口口 |----|
口口口口 |----|
口口口口 |----|
口口口口 |----|
3
口口口口 |----|
口口口口 |----|
口口口口 |----|
口口口口 |----|
4
口口口口 |----|
口口口口 |----|
口口口口 |----|
口口口口 |----|
5
口口口口 |----|
口口口口 |----|
口口口口 |----|
口口口口 |----|
6
口口口口 |①---|
口①①口 |----|
口②②口 |②---|
口口口口 |----|
7
口口口口 |①---|
口口口口 |----|
口口口口 |②---|
口①②口 |----|
8
口口口口 |----|
口口口口 |----|
口口口口 |----|
口口口口 |----|
9
口口口口 |----|
口口口口 |----|
口口口口 |----|
口口口口 |----|
10
口口口口 |①---|
①②口口 |----|
口口口口 |②---|
口口口口 |----|
11
口口口口 |①---|
口口①② |----|
口口口口 |②---|
口口口口 |----|
12
口口口口 |①---|
口口口口 |----|
口口②① |②---|
口口口口 |----|
13
口口口口 |①---|
口口口口 |----|
②①口口 |②---|
口口口口 |----|
14
口口口口 |①---|
口口口口 |----|
口口②口 |②---|
口口①口 |----|
15
口口②口 |①---|
口口①口 |----|
口口口口 |②---|
口口口口 |----|
16
口①口口 |①---|
口②口口 |----|
口口口口 |②---|
口口口口 |----|
17
口口口口 |①---|
口口口口 |----|
口①口口 |②---|
口②口口 |----|
18
口口口口 |①---|
③②①口 |②---|
口④口口 |③---|
口口口口 |④---|
19
口③口口 |①---|
口口口口 |②---|
口口①② |③---|
口口口口 |----|
20
口口①口 |①---|
口口口口 |----|
口口口口 |----|
口口口口 |----|
21
口口口口 |----|
口口口口 |----|
口口口口 |----|
口口口口 |----|
22
口口口口 |①---|
③②①口 |②---|
口④口口 |③---|
口口口口 |④---|
23
口③口口 |①---|
口口口口 |②---|
口口①② |③---|
口口口口 |----|
24
口口①口 |①---|
口口口口 |----|
口口口口 |----|
口口口口 |----|
25
口口口口 |----|
口口口口 |----|
口口口口 |----|
口口口口 |----|
26
③口口口 |①---|
②①口口 |②---|
口口④口 |③---|
口口口口 |④---|
27
口口口口 |①---|
口口口口 |②---|
口③口① |③---|
口口口② |----|
28
口口口口 |①---|
口口①口 |----|
口口口口 |----|
口口口口 |----|
29
口口口口 |①---|
口口口口 |----|
①口口口 |----|
口口口口 |----|
30
口口口口 |①---|
口口口① |----|
口口口口 |----|
口口口口 |----|
31
口口口口 |①---|
口①④口 |②---|
口②③口 |③---|
口口口口 |④---|
32
口①①口 |①---|
口口口口 |----|
口口口口 |----|
口口口口 |----|
33
口口口口 |----|
口口口口 |----|
口口口口 |----|
口口口口 |----|
34
口口口口 |①---|
口①①口 |----|
口②②口 |②---|
口口口口 |----|
35
口口口口 |①---|
口口口口 |----|
口口口口 |②---|
口①②口 |----|
36
口口口口 |①---|
口②②口 |----|
口①①口 |②---|
口口口口 |----|
37
口口口口 |①---|
①口口② |----|
口口口口 |②---|
口口口口 |----|
38
口口口口 |①---|
口②②口 |----|
口①①口 |②---|
口口口口 |----|
39
口①②口 |①---|
口口口口 |----|
口口口口 |②---|
口口口口 |----|
40
口口口口 |①---|
①②③④ |②---|
口口口口 |③---|
口口口口 |④---|
41
口口口口 |----|
口口口口 |----|
口口口口 |----|
口口口口 |----|
42
口口口口 |①---|
口①①口 |----|
口②②口 |②---|
口口口口 |----|
43
口口口口 |①---|
口口口口 |----|
口口口口 |②---|
口①②口 |----|
44
口口口口 |①---|
口②②口 |----|
口①①口 |②---|
口口口口 |----|
45
口口口口 |①---|
①口口② |----|
口口口口 |②---|
口口口口 |----|
46
口口口口 |①---|
口②②口 |----|
口①①口 |②---|
口口口口 |----|
47
口①②口 |①---|
口口口口 |----|
口口口口 |②---|
口口口口 |----|
48
口口口口 |①---|
口口口口 |②---|
④③②① |③---|
口口口口 |④---|
49
口口口口 |----|
口口口口 |----|
口口口口 |----|
口口口口 |----|
50
口口口口 |①---|
③④口口 |②---|
②①口口 |③---|
口口口口 |④---|
51
口口口口 |----|
口口口口 |----|
口口口口 |----|
口口口口 |----|
52
口口口口 |----|
口口口口 |----|
口口口口 |----|
口口口口 |----|
53
口口口口 |----|
口口口口 |----|
口口口口 |----|
口口口口 |----|
54
口口口口 |①---|
口口①② |②---|
口口④③ |③---|
口口口口 |④---|
55
口口口口 |----|
口口口口 |----|
口口口口 |----|
口口口口 |----|
56
口口口口 |----|
口口口口 |----|
口口口口 |----|
口口口口 |----|
57
口口口口 |----|
口口口口 |----|
口口口口 |----|
口口口口 |----|
58
口口口口 |①---|
①②口口 |----|
口口口口 |②---|
口口口口 |----|
59
口口口口 |①---|
口口①② |----|
口口口口 |②---|
口口口口 |----|
60
口口口口 |①---|
口口口口 |----|
口口②① |②---|
口口口口 |----|
61
口口口口 |①---|
口③③口 |----|
②①口口 |②---|
口口口口 |③---|


不确定度: 0

最終更新:2012年11月23日 02:45