ロボットハニー
Aira Mitsuki

ADVANCED

Level: 5
BPM: 131
Notes: 392

1
口口口口 |----|
口口口口 |----|
口口口口 |----|
口口口口 |----|
2
③②口口 |①---|
④①口口 |②---|
口口口口 |③---|
口口口口 |④---|
3
口口口口 |①---|
口口口口 |②---|
②①口口 |③---|
③④口口 |④---|
4
口口口口 |①---|
口口口口 |②---|
口口①④ |③---|
口口②③ |④---|
5
口口④③ |①---|
口口①② |②---|
口口口口 |③---|
口口口口 |④---|
6
口口口口 |①---|
①口口② |----|
①口口② |②---|
口③③口 |--③-|
7
③口口④ |①-②-|
口②②口 |③-④-|
口①①口 |----|
口口口口 |----|
8
口口口口 |①---|
④③口口 |②---|
②①口口 |③---|
口口口口 |④---|
9
口口口口 |①---|
口口③④ |②---|
口口①② |③---|
口口口口 |④---|
10
④口口口 |①---|
③口口口 |②---|
②口口口 |③---|
①口口口 |④---|
11
口①口口 |①---|
口②口口 |②---|
口③口口 |③---|
口④口口 |④---|
12
口口④口 |①---|
口口③口 |②---|
口口②口 |③---|
口口①口 |④---|
13
口口口① |①---|
口口口② |②---|
口口口③ |③---|
口口口④ |④---|
14
①②③④ |①---|
口口口口 |②---|
口口口口 |③---|
口口口口 |④---|
15
口口口口 |①---|
④③②① |②---|
口口口口 |③---|
口口口口 |④---|
16
口口口口 |①---|
口口口口 |②---|
①②③④ |③---|
口口口口 |④---|
17
口口口口 |①---|
口口口口 |②---|
口口口口 |③---|
④③②① |④---|
18
③④⑤口 |①-②-|
②口口⑥ |③-④-|
①口口⑦ |⑤---|
口口口口 |⑥-⑦-|
19
口口口口 |①-②-|
口口口口 |③---|
口④④口 |④---|
口③②① |----|
20
⑥口口⑥ |①-②③|
⑤①①⑤ |-④--|
口④④口 |⑤-⑥-|
口③②口 |----|
21
⑤口口⑤ |--①②|
④口口④ |-③--|
口③③口 |④-⑤-|
口②①口 |----|
22
③④⑤口 |①-②-|
②口口⑥ |③-④-|
①口口⑦ |⑤---|
口口口口 |⑥-⑦-|
23
口⑤④口 |①-②-|
口⑦⑥口 |③---|
口口口口 |④-⑤-|
口③②① |⑥-⑦-|
24
⑥口口⑥ |①-②③|
⑤口口⑤ |-④--|
①④④① |⑤-⑥-|
口③②口 |----|
25
⑤口口⑤ |--①②|
④口口④ |-③--|
口③③口 |④-⑤-|
口②①口 |----|
26
③④⑤口 |①-②-|
②口口⑥ |③-④-|
①口口⑦ |⑤---|
口口口口 |⑥-⑦-|
27
口⑤④口 |①-②-|
口⑦⑥口 |③---|
口口口口 |④-⑤-|
口③②① |⑥-⑦-|
28
⑥口口⑥ |①-②③|
⑤口口⑤ |-④--|
①④④① |⑤-⑥-|
⑦③②⑦ |--⑦-|
29
⑥口口⑥ |①-②③|
⑤口口⑤ |-④--|
①④④① |⑤-⑥-|
口③②口 |----|
30
⑥口口⑥ |①-②③|
⑤口口⑤ |-④--|
①④④① |⑤-⑥-|
口③②口 |----|
31
口⑤⑤口 |①---|
④⑤⑤③ |②---|
口②②口 |③-④-|
口①①口 |--⑤-|
32
口口口口 |----|
①口口口 |----|
口口口口 |①---|
口口口口 |----|
33
口口口口 |①---|
口④④① |----|
口②③口 |②-③-|
口口口口 |④---|
34
口口口口 |①---|
①口口② |----|
①口口② |②---|
口③③口 |--③-|
35
③口口④ |①-②-|
口②②口 |③-④-|
口①①口 |----|
口口口口 |----|
36
口口口口 |①---|
①③③② |----|
①口口② |②---|
口口口口 |--③-|
37
②①①② |①-②-|
③口口③ |③-④-|
④口口④ |----|
口口口口 |----|
38
口口口口 |①---|
①口口② |----|
①口口② |②---|
口③③口 |--③-|
39
④口口④ |①-②-|
③口口③ |③-④-|
②口口② |----|
①口口① |----|
40
口口口口 |①---|
口①口① |----|
口①①① |----|
口口①口 |----|
41
口口口口 |①---|
口①口① |----|
口①①① |----|
口口①口 |----|
42
口口口口 |①---|
①口口② |----|
①口口② |②---|
口③③口 |--③-|
43
③口口④ |①-②-|
口②②口 |③-④-|
口①①口 |----|
口口口口 |----|
44
口口口口 |①---|
①③③② |----|
①口口② |②---|
口口口口 |--③-|
45
②①①② |①-②-|
③口口③ |③-④-|
④口口④ |----|
口口口口 |----|
46
口口口口 |①---|
①口口② |----|
①口口② |②---|
口口③口 |--③-|
47
口口口口 |①-②-|
口④口④ |③-④-|
口①③② |----|
口口口口 |----|
48
③④口口 |①---|
②口口① |②---|
①口口② |③---|
口口④③ |④---|
49
口口①口 |①---|
口②口② |----|
口②②② |----|
口①②口 |②---|
50
①口口② |①---|
口口口口 |②---|
口口口口 |③---|
③口口④ |④---|
51
口②②口 |①---|
③①①③ |②---|
③①①③ |③---|
口④④口 |④---|
52
口②②口 |①---|
③①①③ |②---|
③①①③ |③---|
口④④口 |④---|
53
口②②口 |①---|
③①①③ |②---|
③①①③ |③---|
口④④口 |④---|
54
①口口② |①---|
口口口口 |②---|
口口口口 |③---|
③口口④ |④---|
55
口②②口 |①---|
③①①③ |②---|
③①①③ |③---|
口④④口 |④---|
56
口②②口 |①---|
③①①③ |②---|
③①①③ |③---|
口④④口 |④---|
57
口②②口 |①---|
③①①③ |②---|
③①①③ |③---|
口④④口 |④---|
58
口口①② |①---|
口口④③ |②---|
口口口口 |③---|
口口口口 |④---|
59
口口口口 |①---|
口口口口 |②---|
口口④① |③---|
口口③② |④---|
60
口口口口 |①---|
口口口口 |②---|
③④口口 |③---|
②①口口 |④---|
61
②③口口 |①---|
①④口口 |②---|
口口口口 |③---|
口口口口 |④---|


不确定度: 0

最終更新:2012年11月23日 02:44