ロボットハニー
Aira Mitsuki

EXTREME

Level: 8
BPM: 131
Notes: 568

1
口口口口 |----|
口口口口 |----|
口口口口 |----|
口口口口 |----|
2
⑧⑨④③ |①-②-|
口⑩⑤口 |③④⑤-|
⑦口口② |⑥-⑦-|
口⑥①口 |⑧⑨⑩-|
3
⑧⑨④③ |①-②-|
口⑩⑤口 |③④⑤-|
⑦口口② |⑥-⑦-|
口⑥①口 |⑧⑨⑩-|
4
⑧⑨④③ |①-②-|
口⑩⑤口 |③④⑤-|
⑦口口② |⑥-⑦-|
口⑥①口 |⑧⑨⑩-|
5
口口④③ |①-②-|
口口⑤口 |③④⑤-|
口口口②
口口①口

⑧⑨口口
口⑩口口
⑦口⑨⑧ |⑥-⑦-|
口⑥⑩口 |⑧⑨⑩-|
6
④口口② |①---|
口③①⑤ |②---|
口①③口 |③---|
②口口④ |④-⑤-|
7
口口口口 |①-②-|
口②①口 |③-④-|
口③④口
口口口口

⑦⑧口口
口⑨口口
⑥口口口 |⑤-⑥-|
口⑤口口 |⑦⑧⑨-|
8
⑧⑨④③ |①-②-|
口⑩⑤口 |③④⑤-|
⑦口口② |⑥-⑦-|
口⑥①口 |⑧⑨⑩-|
9
⑨⑩④③ |①-②-|
口⑪⑤口 |③④⑤-|
口⑧⑦② |⑥-⑦⑧|
口⑥①口 |-⑨⑩⑪|
10
口口⑦口 |--①-|
③口⑥口 |②-③-|
②口⑤口 |④-⑤-|
①口④口 |⑥-⑦-|
11
口④口口 |①-②-|
口③口⑥ |③-④-|
口②口⑤ |--⑤-|
口①口口 |⑥---|
12
①口④口 |--①-|
②口⑤口 |②-③-|
③口⑥口 |④-⑤-|
口口⑦口 |⑥-⑦-|
13
口①口口 |①-②-|
口②口⑤ |③-④-|
口③口⑥ |--⑤-|
口④口口 |⑥---|
14
①②③口 |--①-|
⑦⑥⑤④ |②-③-|
口口口口 |④-⑤-|
口口口口 |⑥-⑦-|
15
口口口口 |①-②-|
口口口口 |③-④-|
①②③④ |--⑤-|
口⑥⑤口 |⑥---|
16
①②③口 |--①-|
⑦⑥⑤④ |②-③-|
口口口口 |④-⑤-|
口口口口 |⑥-⑦-|
17
口口口口 |①-②-|
口口口口 |③-④-|
①②③④ |⑤-⑥-|
⑤⑥⑦口 |⑦---|
18
①③②口 |①-②-|
①⑤④口 |③-④-|
口⑦口⑥ |⑤---|
口口口⑥ |⑥-⑦-|
19
口口口口 |①-②-|
口口口口 |③---|
口口①口
口②③口

口口口⑤
口口口④
⑤口⑥口 |④-⑤-|
④口⑥口 |--⑥-|
20
③口口④ |①-②③|
口②口④ |-④--|
⑥⑥口① |⑤-⑥-|
⑤⑤口① |----|
21
②口口③ |--①②|
口①口③ |-③--|
⑤⑤口口 |④-⑤-|
④④口口 |----|
22
①③②口 |①-②-|
①⑤④口 |③-④-|
口⑦口⑥ |⑤---|
口口口⑥ |⑥-⑦-|
23
口口口口 |①-②-|
口口口口 |③---|
口口①口
口②③口

口口口口
口口⑦口
⑤口⑥口 |④-⑤-|
④口口口 |⑥-⑦-|
24
③口①④ |①-②③|
口②口④ |-④--|
⑥⑥口口 |⑤-⑥-|
⑤⑤口口 |----|
25
②口口③ |--①②|
口①口③ |-③--|
⑤⑤口口 |④-⑤-|
④④口口 |----|
26
①③②口 |①-②-|
①⑤④口 |③-④-|
口⑦口⑥ |⑤---|
口口口⑥ |⑥-⑦-|
27
口口口口 |①-②-|
口口口口 |③---|
口口①口
口②③口

口口口口
口口⑦口
⑤口⑥口 |④-⑤-|
④口口口 |⑥-⑦-|
28
③口①④ |①-②③|
⑦②口④ |-④--|
口⑥口口 |⑤-⑥-|
⑤⑤口口 |--⑦-|
29
③口口④ |①-②③|
口②⑧④ |-④--|
①⑥⑦口 |⑤-⑥-|
⑤⑤口口 |⑦-⑧-|
30
③口①④ |①-②③|
口②口④ |-④--|
⑥⑥口口 |⑤-⑥-|
⑤⑤⑦口 |--⑦-|
31
③⑦⑦④ |①-②③|
口②⑥④ |-④--|
口⑤①口 |⑤-⑥-|
口口口口 |--⑦-|
32
⑩口口⑨ |①-②-|
口⑧⑦口 |③-④-|
④⑥⑤③ |⑤⑥⑦⑧|
②口口① |⑨-⑩-|
33
口⑧⑦口 |①②③④|
口⑥⑤口 |⑤⑥⑦⑧|
口④③口
口②①口

口口口口
⑫口口⑫
⑫口口⑫ |⑨⑩⑪-|
⑨口⑪⑩ |⑫---|
34
④口口② |①---|
口③①⑤ |②---|
口①③口 |③---|
②口口④ |④-⑤-|
35
口口口口 |①-②-|
口②①口 |③-④-|
口③④口
口口口口

⑦⑧口口
口⑨口口
⑥口口口 |⑤-⑥-|
口⑤口口 |⑦⑧⑨-|
36
④口口② |①---|
口③①口 |②---|
口①③口 |③---|
②口口④ |④---|
37
口口口③ |①-②-|
④②①口 |③-④-|
口①②④
③口口口

⑦⑧口口
口⑨口口
⑥口口口 |⑤-⑥-|
口⑤口口 |⑦⑧⑨-|
38
④口口② |①---|
口③①⑤ |②---|
口①③口 |③---|
②口口④ |④-⑤-|
39
口口口口 |①-②-|
口②①口 |③-④-|
口③④口
口口口口

⑦⑧口口
口⑨口口
⑥口口口 |⑤-⑥-|
口⑤口口 |⑦⑧⑨-|
40
口口②③ |①-②-|
口口①④ |③-④-|
⑧口口⑤ |⑤-⑥-|
口⑦⑥口 |⑦-⑧-|
41
②③口口 |①---|
①④口口 |②③④-|
口口口口
口口口口

口口口口
⑩口口⑨
⑧口口⑦ |--⑤⑥|
口⑥⑤口 |⑦⑧⑨⑩|
42
④口口② |①---|
口③①⑤ |②---|
口①③口 |③---|
②口口④ |④-⑤-|
43
口口口口 |①-②-|
口②①口 |③-④-|
口③④口
口口口口

⑦⑧口口
口⑨口口
⑥口口口 |⑤-⑥-|
口⑤口口 |⑦⑧⑨-|
44
④口口② |①---|
口③①⑤ |②---|
口①③口 |③---|
②口口④ |④-⑤-|
45
口口口③ |①-②-|
④②①口 |③-④-|
口①②④
③口口口

⑦⑧口口
口⑨口口
⑥口口口 |⑤-⑥-|
口⑤口口 |⑦⑧⑨-|
46
④口口② |①---|
口③①⑤ |②---|
口①③口 |③---|
②口口④ |④-⑤-|
47
口口口口 |①-②-|
口②①口 |③-④-|
口③④口
口口口口

⑦⑧口口
口⑨口口
⑥口口口 |⑤-⑥-|
口⑤口口 |⑦⑧⑨-|
48
口口⑥口 |①---|
口④⑤口 |②---|
口③②① |③-④-|
口口②① |⑤-⑥-|
49
③④口口 |①-②-|
⑤⑥口口 |③④-⑤|
②口⑧⑦ |⑥---|
口①⑨口 |⑦⑧⑨-|
50
④口口② |①---|
口③①口 |②---|
口①③口 |③---|
②口口④ |④---|
51
⑧⑨④③ |①-②-|
口⑩⑤口 |③④⑤-|
⑦口口② |⑥-⑦-|
口⑥①口 |⑧⑨⑩-|
52
⑧⑨④③ |①-②-|
口⑩⑤口 |③④⑤-|
⑦口口② |⑥-⑦-|
口⑥①口 |⑧⑨⑩-|
53
⑧⑨④③ |①-②-|
口⑩⑤口 |③④⑤-|
⑦口口② |⑥-⑦-|
口⑥①口 |⑧⑨⑩-|
54
④口口② |①---|
口③①口 |②---|
口①③口 |③---|
②口口④ |④---|
55
⑧⑨④③ |①-②-|
口⑩⑤口 |③④⑤-|
⑦口口② |⑥-⑦-|
口⑥①口 |⑧⑨⑩-|
56
⑧⑨④③ |①-②-|
口⑩⑤口 |③④⑤-|
⑦口口② |⑥-⑦-|
口⑥①口 |⑧⑨⑩-|
57
⑧⑨④③ |①-②-|
⑩⑪⑤口 |③④⑤-|
口口口② |⑥-⑦-|
⑥口①⑦ |⑧⑨⑩⑪|
58
⑧⑨④③ |①-②-|
⑧⑩⑤③ |③④⑤-|
⑦⑥①② |⑥-⑦-|
口⑥①口 |⑧⑨⑩-|
59
⑧⑨④③ |①-②-|
⑧⑩⑤③ |③④⑤-|
⑦⑥①② |⑥-⑦-|
口⑥①口 |⑧⑨⑩-|
60
⑧⑨④③ |①-②-|
⑧⑩⑤③ |③④⑤-|
⑦⑥①② |⑥-⑦-|
口⑥①口 |⑧⑨⑩-|
61
⑦⑧⑧⑦ |①-②-|
⑦⑨⑨⑦ |③-④-|
⑥②①⑥ |⑤-⑥-|
④⑤⑤③ |⑦⑧⑨-|


不确定度: 0

最終更新:2012年11月23日 02:43