PROMiSE

BASIC

Level: 2
BPM: 140
Notes: 166

1
口口口口 |----|
口口口口 |----|
口口口口 |----|
口口口口 |----|
2
口口口口 |①---|
①口②口 |----|
口口口口 |②---|
口口口口 |----|
3
口口口口 |①---|
口口口口 |----|
口①口② |②---|
口口口口 |----|
4
口口口口 |①---|
①口②口 |----|
口口口口 |②---|
口口口口 |----|
5
口口口口 |①---|
口口口口 |----|
口①口② |②---|
口口口口 |----|
6
口口口口 |----|
口口口口 |①---|
①口口② |----|
口口口口 |②---|
7
口口口口 |----|
口口口口 |①---|
口①②口 |----|
口口口口 |②---|
8
口口口口 |----|
口②①口 |①---|
口口口口 |----|
口口口口 |②---|
9
口口口口 |----|
②口口① |①---|
口口口口 |----|
口口口口 |②---|
10
口口口口 |----|
口口口口 |①---|
口①②口 |----|
口口口口 |②---|
11
口口口口 |----|
口口口口 |----|
口口口口 |①---|
口口①口 |----|
12
口口口口 |①---|
口口口口 |----|
口口口口 |----|
口①口口 |----|
13
口口口口 |----|
口口口口 |----|
口口口口 |----|
口口口口 |----|
14
口口口口 |----|
口①口口 |①---|
口口②口 |----|
口口口口 |②---|
15
口口口口 |----|
口口口口 |①---|
①口口口 |----|
口②口口 |②---|
16
口口口口 |----|
口口口口 |①---|
口②口口 |----|
口口①口 |②---|
17
口②口口 |----|
口口①口 |①---|
口口口口 |----|
口口口口 |②---|
18
口口口口 |①---|
口①②口 |----|
口口口口 |②---|
口口口口 |----|
19
口口口口 |①---|
②口口① |----|
口口口口 |----|
口口口口 |②---|
20
口口口口 |①---|
口口口口 |----|
①②口口 |②---|
口口口口 |----|
21
口口口口 |①---|
口口口口 |----|
口口①口 |----|
口口口口 |----|
22
口口口口 |①---|
①②口口 |----|
口口口口 |②---|
口口口口 |----|
23
口口口口 |①---|
口口①② |----|
口口口口 |②---|
口口口口 |----|
24
口口口口 |①---|
口口口口 |----|
口口②① |②---|
口口口口 |----|
25
口口口口 |①---|
口口口口 |----|
②①口口 |②---|
口口口口 |----|
26
口口口口 |①---|
口口口口 |----|
口口口口 |②---|
①②口口 |----|
27
口口口口 |①---|
口口口口 |----|
口口口口 |②---|
口口①② |----|
28
口口口口 |①---|
口②口口 |----|
口口①口 |②---|
口口口口 |----|
29
①②口口 |①---|
口口口口 |----|
口口口口 |②---|
口口口口 |----|
30
口口①② |①---|
口口口口 |----|
口口口口 |②---|
口口口口 |----|
31
口口口口 |①---|
口口①口 |----|
口②口口 |②---|
口口口口 |----|
32
口口口口 |①---|
口口口口 |----|
②口口口 |②---|
①口口口 |----|
33
②口口口 |①---|
①口口口 |----|
口口口口 |②---|
口口口口 |----|
34
口①口口 |①---|
口②口口 |----|
口口口口 |②---|
口口口口 |----|
35
口口口口 |①---|
口口口口 |----|
口①口口 |②---|
口②口口 |----|
36
口口口口 |①---|
口口口口 |----|
口口②口 |②---|
口口①口 |----|
37
口②②口 |①---|
口口①口 |----|
口口口口 |②---|
口口口口 |----|
38
④③口① |①---|
口②口口 |②---|
口口口口 |③---|
口口口口 |④---|
39
口④②③ |①---|
口口①口 |②---|
口口口口 |③---|
口口口口 |④---|
40
口口口口 |①---|
③①②④ |②---|
口口口口 |③---|
口口口口 |④---|
41
口口口口 |①---|
口口口口 |②---|
口①②③ |③---|
口口口口 |----|
42
口④口口 |①---|
口③口口 |②---|
口②口口 |③---|
口①口口 |④---|
43
口口①② |①---|
口口③④ |②---|
口口口口 |③---|
口口口口 |④---|
44
口口口口 |①---|
口口口口 |②---|
口口①② |----|
口口口口 |----|
45
口口口口 |----|
口口口口 |----|
口口口口 |----|
口口口口 |----|
46
④③口① |①---|
口②口口 |②---|
口口口口 |③---|
口口口口 |④---|
47
口④②③ |①---|
口口①口 |②---|
口口口口 |③---|
口口口口 |④---|
48
口口口口 |①---|
③①②④ |②---|
口口口口 |③---|
口口口口 |④---|
49
口口口口 |①---|
口口口口 |②---|
口①②③ |③---|
口口口口 |----|
50
口④口口 |①---|
口③口口 |②---|
口②口口 |③---|
口①口口 |④---|
51
口口①② |①---|
口口③④ |②---|
口口口口 |③---|
口口口口 |④---|
52
口口口口 |①---|
③④口口 |②---|
口口①② |③---|
口口口口 |④---|
53
口口口口 |①---|
口口口口 |②---|
①②口口 |③---|
③④口口 |④---|
54
口口口口 |①---|
口口②口 |----|
口①①口 |②---|
口口口口 |----|
55
口②②口 |①---|
口①口口 |----|
口口口口 |②---|
口口口口 |----|
56
口口口口 |①---|
口口口口 |----|
口②口口 |②---|
口口①口 |----|
57
口②②口 |①---|
口口①口 |----|
口口口口 |②---|
口口口口 |----|
58
口口口口 |①---|
口①①口 |----|
口口口口 |----|
口口口口 |----|
59
口口口口 |①---|
口口口口 |②---|
①②③④ |③---|
口口口口 |④---|
60
口口口口 |①---|
口口口口 |②---|
①②③④ |③---|
口口口口 |④---|
61
口口口口 |①---|
口口口① |----|
口口口口 |----|
口口口口 |----|
62
口口口口 |①---|
口口②口 |----|
口①①口 |②---|
口口口口 |----|
63
口口②口 |①---|
口①口口 |----|
口口口口 |②---|
口口口口 |----|
64
口口口口 |①---|
口口②口 |----|
①①口口 |②---|
口口口口 |----|
65
口口②① |①---|
口口口口 |----|
口口口口 |②---|
口口口口 |----|
66
口口口口 |①---|
口②口口 |----|
口口①① |②---|
口口口口 |----|
67
②①口口 |①---|
口口口口 |----|
口口口口 |②---|
口口口口 |----|
68
口口口口 |①---|
口口②口 |----|
①①口口 |②---|
口口口口 |----|
69
口口口② |①---|
口口口① |----|
口口口口 |②---|
口口口口 |----|


不确定度: 0

最終更新:2012年11月23日 02:42