800nm
Another Infinity (Ryu☆×Starving Trancer)

EXTREME

Level: 9
BPM: 180
Notes: 610

1
口口口口 |----|
口口口口 |----|
口口口口 |----|
口口口口 |----|
2
①口口② |①---|
口口口④ |②---|
①③③② |③---|
口口口口 |④---|
3
⑦⑧口口 |①-②-|
⑤⑥口口 |③-④-|
③④口口 |⑤-⑥-|
①②口口 |⑦-⑧-|
4
口口口口 |①-②-|
口口③① |③---|
②口⑥⑦ |④-⑤-|
④⑤③① |⑥-⑦-|
5
口②口口 |---①②---|
①口③口 |--③-|
口④口口 |④-⑤-|
口口⑤口 |----|
6
口⑥④② |①---|
口①口口 |②-③-|
口口①口 |④-⑤-|
口⑦⑤③ |⑥-⑦-|
7
口口口口 |①---|
⑦口①⑥ |②-③-|
⑤①口④ |④-⑤-|
③口口② |⑥-⑦-|
8
②④⑥口 |①---|
口①口口 |②-③-|
口口①口 |④-⑤-|
③⑤⑦口 |⑥-⑦-|
9
③口口② |①---|
⑤口①④ |②-③-|
⑦①口⑥ |④-⑤-|
口口口口 |⑥-⑦-|
10
⑦⑤①口 |①---|
口③①口 |②-③-|
口①②口 |④-⑤-|
口①④⑥ |⑥-⑦-|
11
⑦口口口 |①---|
⑤③①① |②-③-|
①①②④ |④-⑤-|
口口口⑥ |⑥-⑦-|
12
口⑤口① |①---|
⑦③①口 |②-③-|
口①②⑥ |④-⑤-|
①口④口 |⑥-⑦-|
13
②口①口 |①-②③|
口口③③ |-④⑤-|
④①口口 |----|
口口⑤⑤ |----|
14
口口口⑥ |①②-③|
①⑥口④ |④-⑤⑥|
③④口② |----|
⑤②口口 |----|
15
口③④④ |①---|
①口②② |②---|
③口口口 |③---|
口①口口 |④---|
16
①口口口 |①-②-|
口②③口 |③-④-|
⑥③④口 |⑤---|
口⑥口⑤ |⑥---|
17
②②①口 |①---|
④④口③ |②---|
口口口① |③---|
口口③口 |④---|
18
④口口口 |①-②-|
口口③口 |③-④-|
口③②口
口口口①

口口⑤口
口⑥口口
⑦口口口 |⑤-⑥-|
口口口⑧ |⑦-⑧-|
19
口口④口 |①---|
③口口② |②---|
口③口④ |③---|
①①②口 |④---|
20
口口口① |①-②-|
口③②口 |③-④-|
口④③⑥ |⑤---|
⑤口⑥口 |⑥---|
21
③①口口 |①---|
口口④② |②---|
①③②口 |③---|
口口口④ |④---|
22
口②①口 |①--②|
①口口② |--③-|
②③③①
口①②口

④口口④
口⑤⑥口
口口口口 |④-⑤-|
口⑦口口 |⑥-⑦-|
23
口④②口 |①---|
①口口③ |②---|
④口口② |③---|
①口口③ |④---|
24
口口口② |①-②-|
①③①口 |③-④-|
口口④⑥ |⑤---|
口③⑥⑤ |⑥---|
25
①③①③ |①---|
口②④口 |②---|
口口口口 |③---|
②口口④ |④---|
26
⑤口①口 |①-②-|
①⑥⑦② |③-④-|
④⑦⑧口 |⑤-⑥-|
口③口口 |⑦-⑧-|
27
口③口③ |①-②-|
口口口① |③-④-|
口口口口
②④口①

⑦口⑦口
口口口口
⑤口口口 |⑤-⑥-|
口口⑥⑧ |⑦-⑧-|
28
口口口口 |①-②-|
口③②① |③-④-|
⑤④③⑦ |⑤-⑥-|
②④⑥⑧ |⑦-⑧-|
29
⑤口④① |①-②-|
②⑤①口 |③-④-|
口⑦③口 |⑤-⑥-|
⑥口口口 |⑦---|
30
④①②④ |①--②|
②③③① |--③-|
①⑥⑤② |④-⑤-|
⑦②①口 |⑥-⑦-|
31
口③④口 |①---②-|
③口口④ |--③---|
②⑥⑤① |④---⑤-|
⑥②①⑤ |--⑥---|
32
①⑥⑥② |①---②-|
⑤①②⑤ |--③---|
④口口④ |④---⑤-|
口③③口 |--⑥---|
33
④口口① |①---|
口⑤①口 |--②-|
②①口口 |③---|
①口③③ |④-⑤-|
34
口口口口 |①---|
口④③③ |--②-|
⑤②①口 |③---|
口口口口 |--④-⑤-|
35
口口口口 |①---|
口口②口 |---②|
口口口口 |----|
②①口② |----|
36
口口①② |--①-|
③口②① |--②-|
口④⑤口 |③-④-|
口口口口 |⑤---|
37
口④③口 |①---②-|
④口口③ |--③---|
①⑤⑥② |④---⑤-|
⑤①②⑥ |--⑥---|
38
②⑥⑥① |①---②-|
⑤②①⑤ |--③---|
④口口④ |④---⑤-|
口③③口 |--⑥---|
39
①③口口 |①---|
③①②③ |--②-|
②③①② |----|
口口②① |③---|
40
口口口口 |----|
口口口口 |----|
口②①口 |----|
口口口口 |①-②-|
41
①口①② |①---|
②①②③ |--②-|
口③口① |----|
③②③口 |③---|
42
口口口口 |----|
口①口口 |----|
口口②口 |----|
口③口口 |①-②-③-|
43
口口口① |----|
②口口口 |----|
口口口口 |----|
口口口口 |--①-②-|
44
口口口口 |①---|
口②口② |--②-|
③口③① |③---|
口口口口 |----|
45
⑦口口② |①-②-|
口⑤④口 |③-④-|
口③⑥口 |⑤-⑥-|
①口口⑧ |⑦-⑧-|
46
口④②口 |①-②-|
⑥⑧口口 |③-④-|
①口口⑦ |⑤-⑥-|
口③⑤口 |⑦-⑧-|
47
口口口口 |①---|
口口口① |----|
口口①口 |----|
口口口口 |----|
48
口⑦口口 |①②-③|
口⑤⑥口 |④-⑤⑥|
③口口④ |⑦---|
①口口② |----|
49
②口口④ |①---|
③口口① |②---|
②口口④ |③---|
③口口① |④---|
50
口口③口 |①-②-|
口④②③ |③-④-|
⑤口④口 |⑤---|
⑥⑤①口 |⑥---|
51
③口③口 |①---|
口④④口 |②---|
口①口① |③---|
口口②② |④---|
52
口①⑥口 |①-②-|
①⑦口⑥ |③-④-|
②口⑦⑤ |⑤-⑥-|
⑧③④口 |⑦-⑧-|
53
③①④② |①---|
口口②④ |②---|
③①口口 |③---|
口口口口 |④---|
54
口③口口 |①-②-|
③②④口 |③-④-|
口④口⑤ |⑤---|
口①⑤⑥ |⑥---|
55
①口①③ |①---|
口②③② |②---|
口④④口 |③---|
口口口口 |④---|
56
④②①④ |①--②|
①⑥⑦② |--③-|
②口⑤① |④-⑤-|
③①②③ |⑥-⑦-|
57
⑤①口口 |①-②-|
③⑦⑧④ |③-④-|
①⑤⑥② |⑤-⑥-|
⑦③口口 |⑦-⑧-|
58
口②③口 |①-②-|
口⑧口③ |③-④-|
①⑦口④ |⑤-⑥-|
⑦⑥⑤口 |⑦-⑧-|
59
口口⑤① |①-②-|
④⑧③⑦ |③-④-|
②⑥①⑤ |⑤-⑥-|
口口⑦③ |⑦-⑧-|
60
口口⑥⑤ |①-②-|
⑧⑦口口 |③-④-|
口口③④ |⑤-⑥-|
①②口口 |⑦-⑧-|
61
口⑧⑤⑤ |①-②-|
口⑥⑦① |③-④-|
④口③③ |⑤-⑥-|
②口⑦① |⑦-⑧-|
62
口口口口 |①-②-|
③口口③ |③-④-|
口口④②
口口口①

口口口口
口口口口
口⑦口口 |⑤-⑥-|
⑦⑤⑥⑧ |⑦-⑧-|
63
①口口⑤ |①-②-|
④③③口 |③-④-|
①口⑤② |⑤-⑥-|
⑥口口⑦ |⑦---|
64
④①②④ |①--②|
②③③① |--③-|
①⑥⑤② |④-⑤-|
⑦②①口 |⑥-⑦-|
65
口②④口 |①---|
③口口① |②---|
②口口④ |③---|
口③①口 |④---|
66
③口口① |①-②-|
口④②⑤ |③-④-|
⑤②④口 |⑤---|
①⑥⑥③ |⑥---|
67
③口口① |①---|
口④②口 |②---|
③④②① |③---|
口口口口 |④---|
68
⑦①②⑧ |①-②-|
①⑦⑧② |③-④-|
④⑥⑤③ |⑤-⑥-|
⑥④③⑤ |⑦-⑧-|
69
口口口口 |①---|
①口口① |----|
口口口口 |----|
口口口口 |----|
70
口口口口 |--①②|
口口①口 |③---|
口②口口 |----|
口口③口 |----|

不确定度: 0

最終更新:2012年11月06日 22:57