PROMiSE

ADVANCED

Level: 5
BPM: 140
Notes: 368

1
口口口口 |----|
口口口口 |----|
口口口口 |----|
口口口口 |----|
2
口口口口 |①---|
口口②③ |②-③-|
①⑤④口 |--④-|
口口口口 |--⑤-|
3
口口口口 |①-②-|
口②③④ |③-④-|
①⑥⑤口 |--⑤-|
口口口口 |--⑥-|
4
口口口口 |①---|
口口②③ |②-③-|
①⑤④口 |--④-|
口口口口 |--⑤-|
5
口口口口 |①-②-|
口②③④ |③-④-|
①⑥⑤口 |--⑤-|
口口口口 |--⑥-|
6
②③④⑤ |①---|
口口⑦⑥ |②-③-|
①口口口 |④-⑤-|
口口口口 |⑥-⑦-|
7
口口口口 |①-②-|
②①口口 |③-④-|
③④⑤⑥ |⑤-⑥-|
口口口⑦ |⑦---|
8
口口口口 |--①-|
口⑥⑤④ |--②-|
①口②③ |③-④-|
口口口口 |⑤-⑥-|
9
②③④⑤ |①-②-|
①⑧⑦⑥ |③-④-|
口口口口 |⑤-⑥-|
口口口口 |⑦-⑧-|
10
口口口口 |--①-|
口口口口 |----|
口口①口 |----|
口口口口 |----|
11
口口口口 |----|
口⑤口口 |--①-|
口③④口 |②-③-|
口①②口 |④-⑤-|
12
口口①口 |--①-|
口口口口 |----|
口口口口 |----|
口口口口 |----|
13
口口口口 |----|
口口口口 |----|
口口口口 |----|
口口口口 |----|
14
⑦口口口 |--①-|
⑤口口⑥ |②-③-|
③口口④ |④-⑤-|
①口口② |⑥-⑦-|
15
口②③① |①-②-|
口④⑤口 |③-④-|
口⑥⑦口 |⑤-⑥-|
口口口口 |⑦---|
16
口口口口 |--①-|
口口口口 |②-③-|
⑤③④⑥ |④---|
口①②口 |⑤-⑥-|
17
③⑤⑥④ |①-②-|
①⑦⑧② |③-④-|
口口口口 |⑤-⑥-|
口口口口 |⑦-⑧-|
18
口口口口 |①---|
口口口口 |②-③-|
口①口口
口②③口

口口口口
口口口口
口④⑤口 |----|
口口口口 |④-⑤-|
19
口口口口 |--①-|
①口口① |----|
口④口口 |--②-|
口②③口 |③-④-|
20
口④⑤口 |①---|
口②③口 |②-③-|
口口①口 |----|
口口口口 |④-⑤-|
21
口口口口 |--①-|
①口口① |----|
口口口口 |----|
口口口口 |----|
22
口口口口 |①---|
口①口② |②---|
⑥⑤④③ |③-④-|
口口口口 |⑤-⑥-|
23
①②③④ |--①-|
口口口⑤ |②-③-|
口口口⑥ |④-⑤-|
口口口⑦ |⑥-⑦-|
24
⑥⑦⑧口 |①-②-|
⑤口口口 |③-④-|
④口口口 |⑤-⑥-|
③②①口 |⑦-⑧-|
25
口口口口 |--①-|
口口口⑦ |②-③-|
口②①⑥ |④-⑤-|
口③④⑤ |⑥-⑦-|
26
口②口① |①---|
③④⑤⑥ |②---|
口口口口 |③-④-|
口口口口 |⑤-⑥-|
27
口口口口 |--①-|
口口口口 |--②-|
②口①口 |--③-|
③④⑤口 |④-⑤-|
28
⑤④③口 |①---|
⑥口口② |②---|
口口口口 |③-④-|
口口口① |⑤-⑥-|
29
口口口口 |--①-|
口口②口 |--②-|
口①口口 |--③-|
口③④⑤ |④-⑤-|
30
口口口口 |①---|
口口口口 |②---|
口②口①
口口口口

口口口⑥
⑤口口口
口口口④ |③-④-|
③口口口 |⑤-⑥-|
31
口⑦口口 |--①-|
口⑤⑥口 |②-③-|
口③④口 |④-⑤-|
口①②口 |⑥-⑦-|
32
②口①③ |①-②-|
④口口⑤ |③-④-|
⑥口口⑦ |⑤-⑥-|
⑧口口口 |⑦-⑧-|
33
口口口口 |--①-|
⑦口口口 |②-③-|
⑤③④⑥ |④-⑤-|
口①②口 |⑥-⑦-|
34
口口口口 |①---|
口口口① |②-③-|
口口口口
②口口③

口口口口
⑥口口⑦
④口口⑤ |④-⑤-|
口口口口 |⑥-⑦-|
35
口口①口 |--①-|
口②③口 |--②-|
口④口口 |--③-|
口口⑤口 |④-⑤-|
36
口口口口 |①-②-|
⑦口口⑧ |③-④-|
③⑤⑥④ |⑤-⑥-|
①口口② |⑦-⑧-|
37
口②②口 |--①-|
口①①口 |--②-|
口口口口 |----|
口口口口 |----|
38
口口口口 |①-②-|
口②③口 |③-④-|
①⑦⑦④ |--⑤-|
⑥口口⑤ |⑥-⑦-|
39
口口口口 |--①-|
口①①口 |----|
口口③口 |----|
口②口口 |②-③-|
40
口口②口 |①-②-|
口①口④ |--③-|
口⑦⑦口 |④-⑤-|
③口⑤⑥ |⑥-⑦-|
41
口口口口 |--①-|
口①①口 |----|
口口口口 |----|
口口口口 |----|
42
口④⑤口 |①---|
口口③③ |②---|
②②口口 |③---|
口口①① |④-⑤-|
43
口口口口 |--①-|
⑥口①口 |--②-|
④口口⑤ |③-④-|
②口口③ |⑤-⑥-|
44
口口口口 |--①-|
口口口口 |----|
口①①口 |----|
口口口口 |----|
45
口口口口 |----|
口口口口 |----|
口口口口 |----|
口口口口 |----|
46
口口口口 |①-②-|
口②③④ |③-④-|
①⑧⑧⑤ |⑤-⑥-|
⑦口口⑥ |⑦-⑧-|
47
口口口口 |--①-|
口①①口 |----|
口口③口 |----|
口②口口 |②-③-|
48
口口②口 |①-②-|
口①口口 |③-④-|
口③口口
④口口口

口口口口
口口口口
口⑦⑦口 |--⑤-|
口口⑤⑥ |⑥-⑦-|
49
口口口口 |--①-|
口①①口 |----|
口口口口 |----|
口口口口 |----|
50
口④⑤口 |①---|
口口③③ |②---|
②②口口 |③---|
口口①① |④-⑤-|
51
口口口口 |--①-|
⑥口①口 |--②-|
④口口⑤ |③-④-|
②口口③ |⑤-⑥-|
52
口口口口 |--①-|
⑥口口口 |--②-|
④①①⑤ |③-④-|
②口口③ |⑤-⑥-|
53
口③③口 |--①-|
口②②口 |--②-|
口①①口 |--③-|
口口口口 |----|
54
口口口口 |----|
口口口口 |----|
口口口口 |----|
口口口口 |----|
55
口口口口 |--①-|
①口口② |--②-|
③口口④ |--③-|
口口口口 |--④-|
56
口口口口 |----|
口口口口 |----|
口口口口 |----|
口口口口 |----|
57
①口口② |--①-|
③口口④ |--②-|
口口口口 |--③-|
口口口口 |--④-|
58
口口口口 |----|
口口口口 |----|
口口口口 |----|
口口口口 |----|
59
口口口口 |--①-|
口口口口 |②-③-|
①②③口 |--④-|
口⑥⑤④ |⑤-⑥-|
60
口口口口 |--①-|
口口口口 |②-③-|
①②③口 |--④-|
口⑥⑤④ |⑤-⑥-|
61
口口口口 |----|
口口口口 |----|
口口口口 |----|
口口口口 |----|
62
口口口口 |--①-|
⑤口⑥⑥ |②-③-|
③④口口 |④-⑤-|
①②口口 |--⑥-|
63
口口口口 |--①-|
⑤口⑥⑥ |②-③-|
③④口口 |④-⑤-|
①②口口 |--⑥-|
64
口口口口 |--①-|
⑤口⑥⑥ |②-③-|
③④口口 |④-⑤-|
①②口口 |--⑥-|
65
口口口口 |--①-|
⑤口⑥⑥ |②-③-|
③④口口 |④-⑤-|
①②口口 |--⑥-|
66
口口口口 |--①-|
⑤口⑥⑥ |②-③-|
③④口口 |④-⑤-|
①②口口 |--⑥-|
67
口口口口 |--①-|
⑤口⑥⑥ |②-③-|
③④口口 |④-⑤-|
①②口口 |--⑥-|
68
口口口口 |--①-|
⑤口⑥⑥ |②-③-|
③④口口 |④-⑤-|
①②口口 |--⑥-|
69
口口口口 |--①-|
⑤口⑥⑥ |②-③-|
③④口口 |④-⑤-|
①②口口 |--⑥-|


不确定度: 0

最終更新:2012年11月23日 02:41