PROMiSE

EXTREME

Level: 7
BPM: 140
Notes: 499

1
口口口口 |----|
口口口口 |----|
口口口口 |----|
口口口口 |----|
2
⑤口口① |①---|
④口③② |②-③-|
②③口④ |--④-|
①口口⑤ |--⑤-|
3
⑥①④口 |①-②-|
⑤②③口 |③-④-|
口③②⑤ |--⑤-|
口④①⑥ |--⑥-|
4
⑤口口① |①---|
④口③② |②-③-|
②③口④ |--④-|
①口口⑤ |--⑤-|
5
⑥①④口 |①-②-|
⑤②③口 |③-④-|
口③②⑤ |--⑤-|
口④①⑥ |--⑥-|
6
口口②⑥ |①---|
⑤⑦口口 |②-③-|
③①①口 |④-⑤-|
口口口④ |⑥-⑦-|
7
⑥④口口 |①-②-|
口口③口 |③-④-|
口口口① |⑤-⑥-|
⑦②口⑤ |⑦---|
8
口口③口 |--①-|
②口口④ |--②-|
⑤①口⑥ |③-④-|
口口口口 |⑤-⑥-|
9
①口⑥② |①-②-|
⑤⑦口口 |③-④-|
口口④⑧ |⑤-⑥-|
③口口口 |⑦-⑧-|
10
口口口口 |--①-|
口口口① |----|
口口口口 |----|
口口口口 |----|
11
口口口口 |----|
口①②口 |--①-|
口④③口 |②-③-|
口⑤口口 |④-⑤-|
12
口口口口 |--①-|
口口口口 |----|
口口口口 |----|
①口口口 |----|
13
口口口口 |----|
口口口口 |----|
口口口口 |----|
口口口口 |----|
14
口口①⑤ |--①-|
④口口口 |②-③-|
②⑥口⑦ |④-⑤-|
口口口③ |⑥-⑦-|
15
⑤③口口 |①-②-|
口口②口 |③-④-|
口口⑥口 |⑤-⑥-|
⑦①口④ |⑦---|
16
口口③⑥ |--①-|
②口口① |②-③-|
④口口口 |④---|
口⑤口口 |⑤-⑥-|
17
口口④口 |①-②-|
③⑦口口 |③-④-|
⑤口②⑧ |⑤-⑥-|
①口口⑥ |⑦-⑧-|
18
④④③③ |①---|
口口口口 |②-③-|
②②⑤⑤ |----|
口①口口 |④-⑤-|
19
口口口口 |--①-|
口口口④ |----|
③口口口 |--②-|
口①①② |③-④-|
20
④④③③ |①---|
口口口口 |②-③-|
口①①口 |----|
②②⑤⑤ |④-⑤-|
21
口口口口 |--①-|
口口口口 |----|
口①①口 |----|
口口口口 |----|
22
⑤⑥口口 |①---|
④①②口 |②---|
③口口口 |③-④-|
②⑤口口 |⑤-⑥-|
23
口口①② |--①-|
口口口③ |②-③-|
口口口④ |④-⑤-|
②⑦⑥⑤ |⑥-⑦-|
24
口口口口 |①-②-|
⑧⑦⑥⑤ |③-④-|
①②③④ |⑤-⑥-|
③⑦口口 |⑦-⑧-|
25
口①②③ |--①-|
口口口④ |②-③-|
口口口⑤ |④-⑤-|
②⑥⑦⑥ |⑥-⑦-|
26
口口口口 |①---|
口口口口 |②---|
口①②口
②口口口

口口口③
口口④口
⑥⑤口口 |③-④-|
口⑤口口 |⑤-⑥-|
27
口口口口 |--①-|
口①口③ |②-③-|
口⑥⑤④ |--④-|
②⑤口口 |⑤-⑥-|
28
③④⑤⑥ |①---|
口口②口 |②---|
①口口口 |③-④-|
②⑤口口 |⑤-⑥-|
29
④口口口 |--①-|
口⑤③口 |②-③-|
口①⑥口 |--④-|
②⑤口口 |⑤-⑥-|
30
⑥⑤④③ |①---|
口口口口 |②---|
②口口口 |③-④-|
②⑤口① |⑤-⑥-|
31
口口口⑦ |--①-|
①②⑤⑥ |②-③-|
口③④口 |④-⑤-|
②⑥口口 |⑥-⑦-|
32
口②①口 |①-②-|
④③口口 |③-④-|
⑤⑥口口 |⑤-⑥-|
③⑦⑧口 |⑦-⑧-|
33
口③口口 |--①-|
④口②口 |②-③-|
口⑤口① |④-⑤-|
②⑥⑥⑦ |⑥-⑦-|
34
口⑥⑦口 |①---|
口④⑤口 |②-③-|
口②③① |④-⑤-|
②⑥口口 |⑥-⑦-|
35
口⑥⑤口 |--①-|
口口口④ |②-③-|
①口口③ |--④-|
②⑤口口 |⑤-⑥-|
36
口⑧⑦口 |①-②-|
①口口⑥ |③-④-|
②口口⑤ |⑤-⑥-|
③⑦口④ |⑦-⑧-|
37
口口口口 |--①-|
口②②口 |--②-|
口①①口 |----|
口口口口 |----|
38
④口口④ |①-②-|
⑦③③⑦ |③-④-|
②⑥⑥② |--⑤-|
⑤①①⑤ |⑥-⑦-|
39
①①①① |--①-|
口①①口 |----|
口口口③ |----|
②口口口 |②-③-|
40
口⑦口② |①-②-|
①口⑥口 |③-④-|
口⑤口口 |--⑤-|
口④③口 |⑥-⑦-|
41
口口口口 |--①-|
①口口① |----|
①口口① |----|
口口口口 |----|
42
口口口口 |①---|
③③口口 |②---|
②②④⑤ |③---|
①①口口 |④-⑤-|
43
口口口口 |--①-|
口口口口 |--②-|
②口口口
口①①口

口口口口
口③④口
口口口⑤ |③-④-|
口口⑥口 |⑤-⑥-|
44
口口口口 |--①-|
口口口口 |----|
口①①口 |----|
口口口口 |----|
45
口口口口 |----|
口口口口 |----|
口口口口 |----|
口口口口 |----|
46
④⑤⑤④ |①-②-|
⑧③③⑧ |③-④-|
②⑦⑦② |⑤-⑥-|
⑥①①⑥ |⑦-⑧-|
47
①①①① |--①-|
口①①口 |----|
口口口③ |----|
②口口口 |②-③-|
48
口⑦口② |①-②-|
①口⑥口 |③-④-|
③⑤口口 |--⑤-|
口④④口 |⑥-⑦-|
49
口口口口 |--①-|
①口口① |----|
①②②① |--②-|
口口口口 |----|
50
口口口口 |①---|
③③口口 |②---|
②②④⑤ |③---|
①①口口 |④-⑤-|
51
口口口口 |--①-|
口口口口 |--②-|
②口口口
口①①口

口口口口
口③④口
口口口⑤ |③-④-|
口口⑥口 |⑤-⑥-|
52
口口口口 |--①-|
②口口口 |--②-|
口①①口
口口口口

口③④口
口口口⑤
口⑥口口 |③-④-|
口口口口 |⑤-⑥-|
53
⑤口④④ |--①-|
口④②② |--②-|
③口①① |③-④-|
口口口口 |⑤---|
54
口口口口 |①---|
①口口口 |----|
口口口口 |②---|
②口口口 |----|
55
口口⑥口 |①-②-|
③④⑤口 |--③-|
口①③口 |④-⑤-|
口口②口 |--⑥-|
56
口口口口 |①---|
口口口口 |----|
口②口口 |②---|
①口口口 |----|
57
④④⑥口 |①-②-|
①①⑤口 |--③-|
口口③口 |④-⑤-|
口口②口 |--⑥-|
58
口口口口 |①---|
口口口口 |----|
①①口口 |----|
口口口口 |----|
59
口口口⑥ |--①-|
口③④⑤ |②-③-|
口口②口 |--④-|
口①口口 |⑤-⑥-|
60
口口口⑥ |--①-|
口③④⑤ |②-③-|
口口②口 |--④-|
口①口口 |⑤-⑥-|
61
口口口口 |----|
口口口口 |----|
口口口口 |----|
口口口口 |----|
62
④⑤⑥口 |①-②-|
口⑦⑧③ |③-④⑤|
②⑨⑩口 |⑥-⑦⑧|
口口口① |-⑨⑩-|
63
④⑤⑥口 |①-②-|
口⑦⑧③ |③-④⑤|
②⑨⑩口 |⑥-⑦⑧|
口口口① |-⑨⑩-|
64
④⑤⑥口 |①-②-|
口⑦⑧③ |③-④⑤|
②⑨⑩口 |⑥-⑦⑧|
口口①① |-⑨⑩-|
65
④⑤⑥口 |①-②-|
口⑦⑧③ |③-④⑤|
②⑨⑩口 |⑥-⑦⑧|
口口口① |-⑨⑩-|
66
④⑤⑥口 |①-②-|
口⑦⑧③ |③-④⑤|
②⑨⑩口 |⑥-⑦⑧|
口口①① |-⑨⑩-|
67
④⑤⑥口 |①-②-|
口⑦⑧③ |③-④⑤|
②⑨⑩口 |⑥-⑦⑧|
口口口① |-⑨⑩-|
68
④⑤⑥口 |①-②-|
口⑦⑧③ |③-④⑤|
②⑨⑩口 |⑥-⑦⑧|
口口①① |-⑨⑩-|
69
④⑤口口 |①-②-|
口口口③ |③-④⑤|
②口口口
口口口①

口口⑥口
口⑦⑧口
口⑨口口 |⑥-⑦⑧|
口口⑩⑪ |-⑨⑩⑪|


不确定度: 0

最終更新:2012年11月23日 02:40