パンキッシュ☆
mihimaru GT

ADVANCED

Level: 6
BPM: 150
Notes: 362

1
口①口口 |----|
口口口口 |----|
口口口口 |----|
口口口口 |--①-|
2
口口①口 |①---|
⑤②③⑤ |②-③-|
口口口口 |--④-|
④口口④ |--⑤-|
3
①②口① |①---|
口口口口 |----|
口口口口 |----|
口口口口 |--②-|
4
口口①口 |①---|
⑤②③⑤ |②-③-|
口口口口 |--④-|
④口口④ |--⑤-|
5
①②口① |①---|
口口口口 |----|
口口口口 |----|
口口口口 |--②-|
6
口口①口 |①---|
⑤②③⑤ |②-③-|
口口口口 |--④-|
④口口④ |--⑤-|
7
①②口① |①---|
口口口口 |----|
口口口口 |----|
口口口口 |--②-|
8
口口①口 |①---|
⑤②③⑤ |②-③-|
口口口口 |--④-|
④口口④ |--⑤-|
9
①口口① |①---|
口口口口 |----|
口口口口 |----|
口②②口 |②---|
10
口①①口 |①---|
口②②口 |----|
口②②口 |----|
口口口口 |②---|
11
①②③口 |①-②-|
口⑥⑤④ |③-④-|
⑦⑧口口 |⑤-⑥-|
口口口口 |⑦-⑧-|
12
⑧口口口 |①-②-|
⑦口口口 |③-④-|
⑥口①口 |⑤-⑥-|
⑤④③② |⑦-⑧-|
13
口①②③ |①-②-|
口⑥⑤④ |③-④-|
⑦⑧口口 |⑤-⑥-|
口口口口 |⑦-⑧-|
14
⑧口口口 |①-②-|
⑦口口口 |③-④-|
⑥口①口 |⑤-⑥-|
⑤④③② |⑦-⑧-|
15
口口口口 |--①-|
口①②③ |--②-|
口①④⑤ |③-④-|
口口⑥口 |⑤-⑥-|
16
口口口④ |--①-|
③口口⑤ |②-③-|
②口口⑥ |--④-|
①口口口 |⑤-⑥-|
17
⑤口口口 |①---|
口口口口 |②---|
④②②口 |③-④-|
③口口① |--⑤-|
18
口口口口 |--①-|
①②③⑤ |--②-|
口口口④ |--③-|
口口口口 |④-⑤-|
19
口口口① |①---|
口口口口 |----|
口口口口 |②---|
②口口③ |③---|
20
口口口口 |①---|
口②③口 |②-③-|
口①①口
口口口口

④口口④
口口口口
口⑤口口 |--④-|
口口口口 |--⑤-|
21
口口口口 |①---|
口口口口 |----|
口口①口 |----|
口口口口 |----|
22
口②①口 |①---|
口口③口 |②---|
口④⑤口 |③---|
口⑥⑦口 |④⑤⑥⑦|
23
口口口口 |--①-|
①口口② |--②-|
③口口③ |--③-|
口④⑤口 |④-⑤-|
24
口③④口 |--①-|
口②⑤口 |②-③-|
口①⑥口 |--④-|
口口口口 |⑤-⑥-|
25
⑥口口⑥ |①---|
口口口口 |②-③-|
⑤口口④ |④-⑤-|
③口①② |--⑥-|
26
口①②口 |--①-|
口③④口 |②-③-|
口⑤⑥口 |④-⑤-|
口⑦口口 |⑥-⑦-|
27
口口口口 |①---|
口口口口 |----|
口口口口 |②---|
③口①② |③---|
28
④口口④ |①---|
口③②口 |②-③-|
①口口① |--④-|
口⑤口口 |--⑤-|
29
口口口口 |①---|
口口口口 |----|
口口口口 |----|
口口①口 |----|
30
口①口口 |----|
口口口口 |----|
口口口口 |----|
口口口口 |--①-|
31
⑨口口口 |①-②③|
⑦口①⑧ |--④⑤|
口②③口 |⑥-⑦-|
④⑤⑥口 |⑧-⑨-|
32
口⑩⑩① |①-②③|
口⑧⑨口 |-④⑤⑥|
②⑥⑦③ |⑦⑧⑨-|
口④⑤口 |⑩---|
33
③④⑤③ |①---|
②⑥口② |②---|
①口口① |③---|
口口口口 |-④⑤⑥|
34
口口口口 |①②③-|
口口①口 |④-⑤-|
口②③口
④口口⑤

口口口口
口⑧⑧口
⑦口口⑦ |⑥--⑦|
口⑥⑥口 |--⑧-|
35
口①②③ |--①-|
口口口口 |②-③-|
口口口口 |④--⑤|
⑥⑤④口 |--⑥-|
36
口口口口 |--①-|
口①②③ |②-③-|
⑤⑤④④ |④--⑤|
口口口口 |----|
37
①①②② |①---|
④③口⑤ |②-③-|
⑥口口⑦ |④⑤⑥⑦|
口口⑧口 |--⑧-|
38
⑥口口⑦ |①-②-|
口⑤④口 |③-④-|
口③②口 |⑤-⑥-|
⑧①口口 |⑦-⑧-|
39
口口口口 |①---|
口口口口 |--②-|
口口口口 |③---|
口②③① |----|
40
口①①口 |①---|
口②③口 |②-③-|
⑤④④口 |--④-|
口口口口 |--⑤-|
41
口口口口 |①---|
口口口口 |--②-|
口③③① |③---|
④②②④ |--④-|
42
口④④口 |①---|
口口口口 |②-③-|
①③③① |--④-|
⑤②②口 |--⑤-|
43
口④口口 |①---|
口口口口 |--②-|
口口口口 |③---|
口②③① |--④-|
44
口口①口 |①---|
口②③口 |②-③-|
⑤④④口 |--④-|
口口口口 |--⑤-|
45
口口口口 |①---|
口口口口 |--②-|
口③③① |③---|
④②②④ |--④-|
46
口④④口 |①---|
⑤口口口 |②-③-|
①③③① |--④-|
口②②口 |--⑤-|
47
口口口口 |①---|
口口口① |----|
口口口口 |----|
②口口② |--②-|
48
口④④口 |①---|
⑤口口口 |②-③-|
①③③① |--④-|
口②②口 |--⑤-|
49
口口口口 |①---|
口口口① |----|
口口口口 |----|
②口口② |--②-|
50
口④④口 |①---|
⑤口口口 |②-③-|
①③③① |--④-|
口②②口 |--⑤-|
51
口口口口 |①---|
口口口① |----|
口口口口 |----|
②口口② |--②-|
52
口④④口 |①---|
⑤口口口 |②-③-|
①③③① |--④-|
口②②口 |--⑤-|
53
口口口口 |①---|
口口口① |----|
口口口口 |----|
②口口② |②---|
54
①口口① |①---|
口口口口 |----|
口口口口 |----|
口口口口 |----|
55
①②③口 |①-②-|
口⑥⑤④ |③-④-|
⑦⑧口口 |⑤-⑥-|
口口口口 |⑦-⑧-|
56
⑧口口口 |①-②-|
⑦口口口 |③-④-|
⑥口①口 |⑤-⑥-|
⑤④③② |⑦-⑧-|
57
口①②③ |①-②-|
口⑥⑤④ |③-④-|
⑦⑧口口 |⑤-⑥-|
口口口口 |⑦-⑧-|
58
⑧口口口 |①-②-|
⑦口口口 |③-④-|
⑥口①口 |⑤-⑥-|
⑤④③② |⑦-⑧-|
59
口口口口 |①---|
口①①口 |----|
口口口口 |----|
口口口口 |----|
60
口口口口 |----|
口口口口 |----|
口口口口 |----|
口口口口 |----|
61
口口口口 |----|
口口口口 |----|
口口口口 |----|
口口口口 |----|
62
口口口口 |----|
口③③口 |--①②|
口①②口 |③---|
口口口口 |----|


不确定度: 0

最終更新:2012年11月23日 02:39